Calificación:
  • 0 voto(s) - 0 Media
  • 1
  • 2
  • 3
  • 4
  • 5
The Equalizer(El Protector)[BRScreener][Español][Accion][2014]
Novel
Nivel: 28 [NivelNivelNivelNivel]
Rango : 8%
RangoRango
Actividad : 5%
ActividadActividad
Experiencia : 50 %
ExperienciaExperiencia
gianpoker OFF Escritor Friki **

  • 1,044

  • 821

  • 2







Respuesta: The Equalizer(El Protector)[BRScreener][Español][Accion][2014] 1044 - 821 - 2   12-12-2014, 04:18 PM
The Equalizer(El Protector)[BRScreener][Español][Accion][2014]

İmage



Título original: The Equalizer
Año: 2014
Duración: 128 min.
País: Estados Unidos
Director: Antoine Fuqua
Guión: Richard Wenk
Música: Harry Gregson-Williams
Fotografía: Mauro Fiore
Reparto: Denzel Washington, Marton Csokas, Chloë Grace Moretz, Melissa Leo, Bill Pullman, Haley Bennett, Dan Bilzerian, Vladimir Kulich, Johnny Messner, Robert Wahlberg, David Harbour, Meredith Prunty, Chanty Sok, David Meunier
Productora: Columbia Pictures / CBS Films / Escape Artists / Lionsgate
Género: Acción. Thriller | Crimen. Mafia. Prostitución

Sinopsis:

Robert McCall, un antiguo agente de la CIA, abandona su retiro para ayudar a Teri, una joven que está en manos de la mafia rusa. Se trata de una situación que despierta en él un renovado deseo de justicia. Versión cinematográfica de la serie de televisión de los 80, 'El justiciero'.


İmage

Código:
General
Complete name                            : Equabrscrnrsoal.avi
Format                                   : AVI
Format/Info                              : Audio Video Interleave
File size                                : 1.51 GiB
Duration                                 : 2h 12mn
Overall bit rate                         : 1 635 Kbps
Writing application                      : VirtualDubMod 1.5.10.2 (build 2540/release)
Writing library                          : VirtualDubMod build 2540/release

Video
ID                                       : 0
Format                                   : MPEG-4 Visual
Format profile                           : Advanced [email protected]
Format settings, BVOP                    : 2
Format settings, QPel                    : No
Format settings, GMC                     : No warppoints
Format settings, Matrix                  : Default (H.263)
Muxing mode                              : Packed bitstream
Codec ID                                 : XVID
Codec ID/Hint                            : XviD
Duration                                 : 2h 12mn
Bit rate                                 : 1 439 Kbps
Width                                    : 720 pixels
Height                                   : 304 pixels
Display aspect ratio                     : 2.35:1
Frame rate                               : 23.976 fps
Color space                              : YUV
Chroma subsampling                       : 4:2:0
Bit depth                                : 8 bits
Scan type                                : Progressive
Compression mode                         : Lossy
Bits/(Pixel*Frame)                       : 0.274
Stream size                              : 1.33 GiB (88%)
Writing library                          : XviD 64

Audio
ID                                       : 1
Format                                   : MPEG Audio
Format version                           : Version 1
Format profile                           : Layer 3
Mode                                     : Joint stereo
Mode extension                           : MS Stereo
Codec ID                                 : 55
Codec ID/Hint                            : MP3
Duration                                 : 2h 8mn
Bit rate mode                            : Constant
Bit rate                                 : 192 Kbps
Channel(s)                               : 2 channels
Sampling rate                            : 44.1 KHz
Compression mode                         : Lossy
Stream size                              : 177 MiB (11%)
Alignment                                : Split accross interleaves
Interleave, duration                     : 43 ms (1.03 video frame)
Interleave, preload duration             : 500 ms
Writing library                          : LAME3.98r
Encoding settings                        : -m j -V 4 -q 3 -lowpass 18.6 -b 192


İmage



İmage




İmage


Código:
http://streamin.to/l4lp9jbzb9cl

İmage
İmage



Código:
http://ul.to/3mjxr5a4
http://ul.to/4xjekdij
http://ul.to/cdcwbtog
https://www.oboom.com/LWISUX37/Equabrscrnrsoal.part3.rar
https://www.oboom.com/VVZTS3GF/Equabrscrnrsoal.part2.rar
https://www.oboom.com/CRT7AIP3/Equabrscrnrsoal.part1.rar
http://www.cloudzilla.to/share/file/UC4RDJTMZZE4VOI6DRGBRAZJG/
http://www.cloudzilla.to/share/file/H6MUKVHEVIMRZZSWRGOKNXQCF/
http://www.cloudzilla.to/share/file/CJWKM3KWXVTVDV3EVMSA2NFAP/
http://mediafree.co/08vlgumj5gr6/Equabrscrnrsoal.part1.rar.html
http://mediafree.co/ka1j878ztv1e/Equabrscrnrsoal.part2.rar.html
http://mediafree.co/wp98dqeqch8w/Equabrscrnrsoal.part3.rar.html
http://www.uploadable.ch/file/v3fUTSaDWfVq/Equabrscrnrsoal.part1.rar
http://www.uploadable.ch/file/qYv6ZVgfSBVq/Equabrscrnrsoal.part2.rar
http://www.uploadable.ch/file/P25xqJTnMcR2/Equabrscrnrsoal.part3.rar



İmage

"Ignorar Esto"
ExtraTags:
the equalizer
the equalizer pelicula completa
the equalizer trailer
the equalizer el protector
the equalizer online latino
the equalizer estreno peru
the equalizer serie
the equalizer online
the equalizer imdb
the equalizer cuando se estrena
the equalizer denzel washington
the equalizer dvdrip
the equalizer estreno peru
the equalizer filmaffinity
the equalizer film
the equalizer fecha de estreno
the equalizer full movie
the equalizer fecha de estreno españa
the equalizer film online
the equalizer la pelicula
the equalizer 720p
the equalizer 1080p
0
İmage


Salto de foro:


Usuarios navegando en este tema: 1 invitado(s)