Calificación:
  • 0 voto(s) - 0 Media
  • 1
  • 2
  • 3
  • 4
  • 5
Sharknado 2[MICROHD720p][AC3.Español][2014]
Novel
Nivel: 28 [NivelNivelNivelNivel]
Rango : 8%
RangoRango
Actividad : 5%
ActividadActividad
Experiencia : 50 %
ExperienciaExperiencia
gianpoker OFF Escritor Friki **

  • 1,044

  • 821

  • 2







Respuesta: Sharknado 2[MICROHD720p][AC3.Español][2014] 1044 - 821 - 2   02-08-2014, 07:56 AM
Sharknado 2[MICROHD720p][AC3.Español][2014]

İmage



Título original Sharknado 2: The Second One (TV)
Año: 2014
Duración: 90 min.
País: Estados Unidos
Director: Anthony C. Ferrante
Guión: Thunder Levin
Música: Chris Ridenhour
Fotografía: Ben Demaree
Reparto: Ian Ziering, Tara Reid, Kari Wuhrer, Vivica A. Fox, Kelly Osbourne, Andy Dick, Billy Ray Cyrus, Judd Hirsch, Judah Friedlander, Mark McGrath, Kurt Angle
Productora: The Asylum / Syfy
Género: Terror | Tiburones. Catástrofes. Secuela. Telefilm

SINOPSIS: Fin y los suyos se enfrentan a un tornado de tiburones... otra vez. Secuela de la exitosa película para televisión "Sharknado" (2013).

El éxito inesperado de la película Sharknado ha hecho que la productora The Asylum ponga manos a la obra en la secuela.

La trama tendrá lugar en la ciudad de Nueva York bajo la misma premisa: tiburones catapultados por tornados devastarán la ciudad...




İmage

Código:
Sharknado.2.MICROHD.720p.AC3.SPANiSH.HDTV.2014 By gianpoker.mkv
Size: 2765410239 bytes (2.58 GiB), duration: 01:25:33, avg.bitrate: 4310 kb/s
Audio: ac3, 48000 Hz, 2 channels, s16 (spa)
Video: h264, yuv420p, 1280x720, 25.00 fps(r) (eng)

[spoiler]
General
Unique ID : 178433789409983739507437775606734837604 (0x863D190A2CF44ACFB280605B94AED764)
Complete name : Sharknado.2.MICROHD.720p.AC3.SPANiSH.HDTV.2014.[TRCKHD].mkv
Format : Matroska
Format version : Version 4 / Version 2
File size : 2.58 GiB
Duration : 1h 25mn
Overall bit rate : 4 309 Kbps
Movie name : Sharknado.2.MICROHD.720p.AC3.SPANiSH.HDTV.2014.[TRCKHD]
Encoded date : UTC 2014-07-31 11:23:10
Writing application : mkvmerge v6.3.0 ('You can't stop me!') built on Jun 28 2013 20:09:41
Writing library : libebml v1.3.0 + libmatroska v1.4.0

Video
ID : 1
Format : AVC
Format/Info : Advanced Video Codec
Format profile : [email protected]
Format settings, CABAC : Yes
Format settings, ReFrames : 3 frames
Codec ID : V_MPEG4/ISO/AVC
Duration : 1h 25mn
Bit rate : 4 032 Kbps
Width : 1 280 pixels
Height : 720 pixels
Display aspect ratio : 16:9
Frame rate : 25.000 fps
Color space : YUV
Chroma subsampling : 4:2:0
Bit depth : 8 bits
Scan type : Progressive
Bits/(Pixel*Frame) : 0.175
Stream size : 2.41 GiB (94%)
Title : Sharknado.2.MICROHD.720p.AC3.SPANiSH.HDTV.2014.[TRCKHD]
Writing library : x264 core 130 r2273 b3065e6
Encoding settings : cabac=1 / ref=4 / deblock=1:-1:-1 / analyse=0x3:0x113 / me=hex / subme=9 / psy=1 / psy_rd=1,00:0,15 / mixed_ref=1 / me_range=16 / chroma_me=1 / trellis=2 / 8x8dct=1 / cqm=0 / deadzone=21,11 / fast_pskip=1 / chroma_qp_offset=-3 / threads=12 / lookahead_threads=1 / sliced_threads=0 / nr=0 / decimate=1 / interlaced=0 / bluray_compat=0 / constrained_intra=0 / bframes=4 / b_pyramid=1 / b_adapt=2 / b_bias=0 / direct=1 / weightb=1 / open_gop=0 / weightp=1 / keyint=250 / keyint_min=25 / scenecut=40 / intra_refresh=0 / rc_lookahead=40 / rc=crf / mbtree=1 / crf=17,0 / qcomp=0,60 / qpmin=0 / qpmax=69 / qpstep=4 / ip_ratio=1,40 / aq=1:1,00
Language : English
Default : Yes
Forced : No
Color primaries : BT.709-5, BT.1361, IEC 61966-2-4, SMPTE RP177
Transfer characteristics : BT.709-5, BT.1361
Matrix coefficients : BT.709-5, BT.1361, IEC 61966-2-4 709, SMPTE RP177

Audio
ID : 2
Format : AC-3
Format/Info : Audio Coding 3
Mode extension : CM (complete main)
Codec ID : A_AC3
Duration : 1h 25mn
Bit rate mode : Constant
Bit rate : 192 Kbps
Channel(s) : 2 channels
Channel positions : Front: L R
Sampling rate : 48.0 KHz
Bit depth : 16 bits
Compression mode : Lossy
Stream size : 118 MiB (4%)
Title : AC3 Castellano www.todohdtv.com
Language : Spanish
Default : Yes
Forced : No
[/spoiler]


İmage



İmage


İmage
İmage




İmage

Código:
http://ul.to/mu3pxcuv
http://ul.to/z0ggye8r
http://ul.to/5kclshll
http://ul.to/5bfgdrbz


İmage

Código:
http://www.uploadable.ch/file/KWcxKksDcGue/xxSh4rkn.m720p.part1.rar
http://www.uploadable.ch/file/VJV3pNS75HsQ/xxSh4rkn.m720p.part2.rar
http://www.uploadable.ch/file/m5uzA96ZYv3p/xxSh4rkn.m720p.part3.rar
http://www.uploadable.ch/file/wAAU4WkYDEAC/xxSh4rkn.m720p.part4.rar


İmage

Código:
http://xerver.co/i6fmykwv80b5/xxSh4rkn.m720p.part1.rar
http://xerver.co/0a45a9np4kiz/xxSh4rkn.m720p.part2.rar
http://xerver.co/rrkjmx753tiu/xxSh4rkn.m720p.part3.rar
http://xerver.co/23nzjo9rr77w/xxSh4rkn.m720p.part4.rar


İmage
0


Salto de foro:


Usuarios navegando en este tema: 1 invitado(s)