• ... Sin eventos.....

    • ... Se ruega leer las normas y reglas. Leer aquí

    • Bienvenido..


     
    Calificación:
    • 0 votos - 0 Media
    • 1
    • 2
    • 3
    • 4
    • 5
    Séptimo[BDRIPM1080p][Español][Thriller][2013]


    Registrados

    Escritor Friki


    *****
    1,044

    2

    Séptimo[BDRIPM1080p][Español][Thriller][2013]
    Séptimo[BDRIPM1080p][Español][Thriller][2013]

    İmage



    Título original: Séptimo
    Año: 2013
    Duración: 88 min.
    País: España
    Director: Patxi Amezcua
    Guión: Patxi Amezcua, Alejo Flah
    Música: Roque Baños
    Fotografía: Lucio Bonelli
    Reparto: Ricardo Darín, Belén Rueda, Luis Ziembrowski, Osvaldo Santoro, Guillermo Arengo, Jorge D'Elía, Andrea Carballo
    Productora: Coproducción España-Argentina; CEPA Audiovisual / El Toro Productions / Ikiru Films / K&S Films / Telecinco Cinema
    Género: Thriller. Intriga | Secuestros / Desapariciones

    Sinopsis:

    Un padre y sus dos hijos juegan a ver quién llega primero a la calle desde un séptimo piso: si el padre en el ascensor o los niños por las escaleras. Cuando el padre llega a la planta baja, resulta que los niños no aparecen, no hay ni rastro de ellos. Empieza entonces una búsqueda frenética por parte del padre (Ricardo Darín) y la madre (Belén Rueda).


    İmage

    Código:
    General
    Unique ID                                : 185743562978952159818851586087703590286 (0x8BBCE8B3B057857CB7379E2E9824B58E)
    Complete name                            : SeptimoM1080.by gianpoker.mkv
    Format                                   : Matroska
    Format version                           : Version 4 / Version 2
    File size                                : 4.25 GiB
    Duration                                 : 1h 22mn
    Overall bit rate                         : 7 414 Kbps
    Movie name                               : Septimo
    Encoded date                             : UTC 2014-04-30 09:45:20
    Writing application                      : mkvmerge v6.9.1 ('Blue Panther') 64bit built on Apr 18 2014 18:23:38
    Writing library                          : libebml v1.3.0 + libmatroska v1.4.1

    Video
    ID                                       : 1
    Format                                   : AVC
    Format/Info                              : Advanced Video Codec
    Format profile                           : [email protected]
    Format settings, CABAC                   : No
    Format settings, ReFrames                : 2 frames
    Format settings, GOP                     : M=5, N=12
    Codec ID                                 : V_MPEG4/ISO/AVC
    Duration                                 : 1h 22mn
    Bit rate                                 : 5 872 Kbps
    Width                                    : 1 920 pixels
    Height                                   : 1 080 pixels
    Display aspect ratio                     : 16:9
    Frame rate mode                          : Constant
    Frame rate                               : 23.976 fps
    Color space                              : YUV
    Chroma subsampling                       : 4:2:0
    Bit depth                                : 8 bits
    Scan type                                : Progressive
    Bits/(Pixel*Frame)                       : 0.118
    Stream size                              : 3.37 GiB (79%)
    Title                                    : Septimo
    Language                                 : Spanish
    Default                                  : Yes
    Forced                                   : No

    Audio #1
    ID                                       : 2
    Format                                   : DTS
    Format/Info                              : Digital Theater Systems
    Mode                                     : 16
    Format settings, Endianness              : Big
    Codec ID                                 : A_DTS
    Duration                                 : 1h 22mn
    Bit rate mode                            : Constant
    Bit rate                                 : 755 Kbps
    Channel(s)                               : 6 channels
    Channel positions                        : Front: L C R, Side: L R, LFE
    Sampling rate                            : 48.0 KHz
    Bit depth                                : 24 bits
    Compression mode                         : Lossy
    Stream size                              : 443 MiB (10%)
    Title                                    : dts
    Language                                 : Spanish
    Default                                  : Yes
    Forced                                   : Yes

    Audio #2
    ID                                       : 3
    Format                                   : AC-3
    Format/Info                              : Audio Coding 3
    Mode extension                           : CM (complete main)
    Format settings, Endianness              : Big
    Codec ID                                 : A_AC3
    Duration                                 : 1h 22mn
    Bit rate mode                            : Constant
    Bit rate                                 : 640 Kbps
    Channel(s)                               : 6 channels
    Channel positions                        : Front: L C R, Side: L R, LFE
    Sampling rate                            : 48.0 KHz
    Bit depth                                : 16 bits
    Compression mode                         : Lossy
    Stream size                              : 376 MiB (9%)
    Title                                    : ac3
    Language                                 : Spanish
    Default                                  : No
    Forced                                   : No

    Text #1
    ID                                       : 4
    Format                                   : UTF-8
    Codec ID                                 : S_TEXT/UTF8
    Codec ID/Info                            : UTF-8 Plain Text
    Title                                    :
    Language                                 : Spanish
    Default                                  : No
    Forced                                   : No

    Text #2
    ID                                       : 5
    Format                                   : UTF-8
    Codec ID                                 : S_TEXT/UTF8
    Codec ID/Info                            : UTF-8 Plain Text
    Title                                    :
    Language                                 : English
    Default                                  : No
    Forced                                   : No

    Menu
    00:00:00.000                             : en:(01)00:00:00:000
    00:04:31.750                             : en:(02)00:04:31:750
    00:10:42.375                             : en:(03)00:10:42:375
    00:15:02.875                             : en:(04)00:15:02:875
    00:20:40.875                             : en:(05)00:20:40:875
    00:25:51.750                             : en:(06)00:25:51:750
    00:30:33.625                             : en:(07)00:30:33:625
    00:35:08.500                             : en:(08)00:35:08:500
    00:40:15.750                             : en:(09)00:40:15:750
    00:45:55.750                             : en:(10)00:45:55:750
    00:51:03.625                             : en:(11)00:51:03:625
    00:57:07.250                             : en:(12)00:57:07:250
    01:00:35.500                             : en:(13)01:00:35:500
    01:04:49.000                             : en:(14)01:04:49:000
    01:07:27.875                             : en:(15)01:07:27:875
    01:20:53.000                             : en:(16)01:20:53:000
    01:26:59.000                             : en:(17)01:26:59:000


    İmage



    İmage


    İmage
    İmage



    Código:
    http://ul.to/hrfi8f1p
    http://ul.to/7mhirz0n
    http://ul.to/la9oyrji
    http://ul.to/wvv9iwxz
    http://ul.to/mdakrfyp
    http://ul.to/4tczohtr
    https://www.oboom.com/EDSIMB7R/7mo.M1080p.part6.rar
    https://www.oboom.com/1YJEP9V0/7mo.M1080p.part5.rar
    https://www.oboom.com/M5ROPD32/7mo.M1080p.part4.rar
    https://www.oboom.com/CX76GFJR/7mo.M1080p.part3.rar
    https://www.oboom.com/7MMB0YFK/7mo.M1080p.part2.rar
    https://www.oboom.com/XXDKHPH3/7mo.M1080p.part1.rar
    http://www.cloudzilla.to/share/file/FQXHCXGMOG5AC4J32LFI5XTB6/
    http://www.cloudzilla.to/share/file/2Z3ANVJEC5NDXB2A4FNK4I0FX/
    http://www.cloudzilla.to/share/file/OI1ZG3DJ6MYIJBKIRCPI4FCY3/
    http://www.cloudzilla.to/share/file/DRM6KT0XOGOG0FZFJQSOKVP3Z/
    http://www.cloudzilla.to/share/file/SPCTDYHEZGB0JY221NR6BQOYD/
    http://www.cloudzilla.to/share/file/PCF1FTWO42BHPCBWC6LX3NKOF/
    http://mediafree.co/5vrf5robhpjd/7mo.M1080p.part1.rar.html
    http://mediafree.co/6zzfrf3sdt13/7mo.M1080p.part2.rar.html
    http://mediafree.co/ngnp2vjenkpn/7mo.M1080p.part3.rar.html
    http://mediafree.co/7a2hyslz02yy/7mo.M1080p.part4.rar.html
    http://mediafree.co/4h7upbkh86os/7mo.M1080p.part5.rar.html
    http://mediafree.co/tc1nhbbft0ie/7mo.M1080p.part6.rar.html
    http://www.uploadable.ch/file/hvjTDtptdQSE/7mo.M1080p.part1.rar
    http://www.uploadable.ch/file/Cs6VBrcqE7Yb/7mo.M1080p.part2.rar
    http://www.uploadable.ch/file/JCzSSCQzGrF2/7mo.M1080p.part3.rar
    http://www.uploadable.ch/file/zGDuBNhP2BkW/7mo.M1080p.part4.rar
    http://www.uploadable.ch/file/b23CqW99VgTx/7mo.M1080p.part5.rar
    http://www.uploadable.ch/file/crHv5BcDvz4J/7mo.M1080p.part6.rar



    İmage

    İmage
    12-12-2014 07:30 AM
    Buscar Responder


    Salto de foro:


    Usuario(s) navegando en este tema: 1 invitado(s)

    Acerca ForoNsN - New Softwarez Network

    Somos una comunidad abierta a todo tipo de persona, con ganas de aprender y compartir todo tipo de conocimiento!

    ""El Don más grande que podemos hacer a otros no es compartir con ellos nuestra riqueza, sino hacerles descubrir la propia""

     

    Información