Calificación:
  • 0 voto(s) - 0 Media
  • 1
  • 2
  • 3
  • 4
  • 5
Pulp Fiction (1994) BR 720p Dual AC3 Sub MKV [EMULE]
Novel
Nivel: 7 [NivelNivelNivelNivelNivel]
Rango : 9%
RangoRango
Actividad : 25%
ActividadActividad
Experiencia : 40 %
ExperienciaExperiencia
javifelices OFF Comparte y Disfruta **
1

  • 72

  • 11

  • 0







Respuesta: Pulp Fiction (1994) BR 720p Dual AC3 Sub MKV [EMULE] 72 - 11 - 0   12-03-2013, 08:52 AM

İmage



TÍTULO ORIGINAL: Pulp Fiction
AÑO: 1994
DURACIÓN: 153 min.
PAÍS: İmage
DIRECTOR: Quentin Tarantino
GUIÓN: Quentin Tarantino & Roger Avary
MÚSICA: Varios
FOTOGRAFÍA: Andrzej Sekula
REPARTO:John Travolta, Samuel L. Jackson, Uma Thurman, Bruce Willis, Harvey Keitel, Eric Stoltz, Tim Roth, Maria de Medeiros, Amanda Plummer, Ving Rhames, Rosanna Arquette, Christopher Walken, Quentin Tarantino, Peter Greene, Phil LaMarr, Paul Calderon, Burr Steers, Frank Whaley
PRODUCTORA: Miramax Films / Band Apart / Jersey Films. Productor: Lawrence Bender
PREMIOS:
1994: Oscar: Mejor guión original. 7 Nominaciones
1994: Globo de Oro: Mejor guión. 6 nominaciones
1994: 2 Premios BAFTA: Mejor actor de reparto (Samuel L. Jackson), guión. 9 nominaciones
1994: Festival de Cannes: Palma de Oro
1994: Nominada al Cesar: Mejor película extranjera
1994: Premios David di Donatello: Mejor film y actor extranjero (Travolta). 3 nominaciones
1990: National Board of Review: Mejor película (ex-aequo)

GÉNERO: Thriller. Acción | Crimen. Historias cruzadas. Película de culto

SINOPSIS:
Jules y Vincent son dos asesinos a sueldo con muy pocas luces que trabajan para Marsellus Wallace. Antes de realizar un trabajo, Vincent le confiesa a Jules que Marsellus le ha pedido que cuide de Mia, su mujer. Jules le recomienda prudencia porque es muy peligroso sobrepasarse con la novia del jefe, pero llega la hora de trabajar y ambos deben ponerse manos a la obra. Su misión: recuperar un misterioso maletín. (FILMAFFINITY)

CRÍTICAS:
Tras firmar una de las más geniales óperas primas jamás realizadas, el inefable Tarantino confirma su talento en esta brillantísima película de acción, con diálogos y toques de comedia delirantes ("Soy el sr. Lobo, resuelvo problemas") al lado de escenas que rayan lo desagradable por su violencia y crudeza. Maravillosamente filmada, de nuevo sorprende su estructura narrativa y, de propina, resucitó para el cine a un Travolta gordito y magistral. Todo un clásico del cine moderno. (Pablo Kurt: FILMAFFINITY)

"Tan alabada como denostada, es una sinfonía pop que funciona por acumulación y en la que todo vale salvo el rigor." (Miguel Ángel Palomo: Diario El País)



Media Info:

Código:
General
Complete name                            : Pulp Fiction (1994) Bdrip 720 x modorro HDCL.mkv
Format                                   : Matroska
Format version                           : Version 2
File size                                : 3.75 GiB
Duration                                 : 2h 34mn
Overall bit rate                         : 3 478 Kbps
Encoded date                             : UTC 2012-07-22 13:22:45
Writing application                      : mkvmerge v5.7.0 ('The Whirlwind') built on Jul  8 2012 20:08:51
Writing library                          : libebml v1.2.3 + libmatroska v1.3.0

Video
ID                                       : 1
Format                                   : AVC
Format/Info                              : Advanced Video Codec
Format profile                           : [email protected]
Format settings, CABAC                   : Yes
Format settings, ReFrames                : 12 frames
Codec ID                                 : V_MPEG4/ISO/AVC
Duration                                 : 2h 34mn
Bit rate                                 : 2 129 Kbps
Width                                    : 1 280 pixels
Height                                   : 544 pixels
Display aspect ratio                     : 2.35:1
Frame rate                               : 24.000 fps
Color space                              : YUV
Chroma subsampling                       : 4:2:0
Bit depth                                : 8 bits
Scan type                                : Progressive
Bits/(Pixel*Frame)                       : 0.127
Stream size                              : 2.29 GiB (61%)
Title                                    : Pulp Fiction (1994) Bdrip 720 x modorro
Writing library                          : x264 core 120 r2164 da19765
Encoding settings                        : cabac=1 / ref=12 / deblock=1:-2:-2 / analyse=0x3:0x133 / me=umh / subme=10 / psy=1 / psy_rd=1.00:0.25 / mixed_ref=1 / me_range=24 / chroma_me=1 / trellis=2 / 8x8dct=1 / cqm=0 / deadzone=6,6 / fast_pskip=1 / chroma_qp_offset=-4 / threads=12 / sliced_threads=0 / nr=0 / decimate=0 / interlaced=0 / bluray_compat=0 / constrained_intra=0 / bframes=8 / b_pyramid=2 / b_adapt=2 / b_bias=0 / direct=3 / weightb=1 / open_gop=0 / weightp=2 / keyint=250 / keyint_min=24 / scenecut=40 / intra_refresh=0 / rc_lookahead=60 / rc=crf / mbtree=1 / crf=19.5 / qcomp=0.80 / qpmin=0 / qpmax=69 / qpstep=4 / ip_ratio=1.10 / aq=1:0.50
Language                                 : English

Audio #1
ID                                       : 2
Format                                   : AC-3
Format/Info                              : Audio Coding 3
Mode extension                           : CM (complete main)
Codec ID                                 : A_AC3
Duration                                 : 2h 34mn
Bit rate mode                            : Constant
Bit rate                                 : 640 Kbps
Channel(s)                               : 6 channels
Channel positions                        : Front: L C R, Side: L R, LFE
Sampling rate                            : 48.0 KHz
Bit depth                                : 16 bits
Compression mode                         : Lossy
Stream size                              : 706 MiB (18%)
Title                                    : Pulp Fiction (1994) Bdrip 720 x modorro
Language                                 : Spanish

Audio #2
ID                                       : 3
Format                                   : AC-3
Format/Info                              : Audio Coding 3
Mode extension                           : CM (complete main)
Codec ID                                 : A_AC3
Duration                                 : 2h 34mn
Bit rate mode                            : Constant
Bit rate                                 : 640 Kbps
Channel(s)                               : 6 channels
Channel positions                        : Front: L C R, Side: L R, LFE
Sampling rate                            : 48.0 KHz
Bit depth                                : 16 bits
Compression mode                         : Lossy
Stream size                              : 706 MiB (18%)
Title                                    : Pulp Fiction (1994) Bdrip 720 x modorro
Language                                 : English

Text #1
ID                                       : 4
Format                                   : UTF-8
Codec ID                                 : S_TEXT/UTF8
Codec ID/Info                            : UTF-8 Plain Text
Title                                    : Pulp Fiction (1994) Bdrip 720 x modorro
Language                                 : Spanish

Text #2
ID                                       : 5
Format                                   : UTF-8
Codec ID                                 : S_TEXT/UTF8
Codec ID/Info                            : UTF-8 Plain Text
Title                                    : Pulp Fiction (1994) Bdrip 720 x modorro
Language                                 : English



Fuente : BDremux
Tamaño : 3.75 GIB
Audio : Castellano/Inglés AC3
Resolución: 1280p X 544p
Subtítulos: Castellano/Inglés



Capturas:

İmage
İmage





Código PHP:
ed2k://|file|Pulp%20Fiction%20(1994)%20Bdrip%20720%20x%20modorro%20HDCL.mkv|4024658083|20E803FFB1830506DE143EF1557C5CED|h=RZ6X5QUAYMETBOHRDHCYNWNVEDMGIQPX|/ 


cortesía de modorro para HDCL




0
"Enseñar, es aprender 2 veces"

İmage

Comparte y Disfruta



Salto de foro:


Usuarios navegando en este tema: 1 invitado(s)