Calificación:
  • 0 voto(s) - 0 Media
  • 1
  • 2
  • 3
  • 4
  • 5
Prometheus[BDRIPM1080p][DUAL][C.ficcion][2012]
Novel
Nivel: 28 [NivelNivelNivelNivel]
Rango : 8%
RangoRango
Actividad : 5%
ActividadActividad
Experiencia : 50 %
ExperienciaExperiencia
gianpoker OFF Escritor Friki **
1

  • 1,044

  • 821

  • 2







Respuesta: Prometheus[BDRIPM1080p][DUAL][C.ficcion][2012] 1044 - 821 - 2   12-12-2014, 07:13 AM
Prometheus[BDRIPM1080p][DUAL][C.ficcion][2012]

İmage



Título original: Prometheus
Año: 2012
Duración: 123 min.
País: Estados Unidos
Director: Ridley Scott
Guión: Damon Lindelof, John Spaihts
Música: Marc Streitenfeld
Fotografía: Dariusz Wolski
Reparto: Noomi Rapace, Michael Fassbender, Charlize Theron, Idris Elba, Guy Pearce, Logan Marshall-Green, Sean Harris, Rafe Spall, Emun Elliott, Benedict Wong, Kate Dickie, Patrick Wilson, Lucy Hutchinson, Giannina Facio
Productora: 20th Century Fox / Scott Free Productions / Dune Entertainment
Género: Ciencia ficción. Terror | Extraterrestres. Aventura espacial. Precuela

Sinopsis:

Un grupo de científicos y exploradores emprende un viaje espacial a un remoto planeta, una rara estrella recién descubierta, donde sus límites físicos y mentales serán puestos a prueba. El motivo de la misión es que los humanos creen que allá podrán encontrar la respuesta a las preguntas más profundas y al mayor de los misterios: el origen de la vida en la Tierra.


İmage

Código:
General
Unique ID                                : 219666983792842296683718769686927379527 (0xA542527AE96F4B21B8A22E82E36C0C47)
Complete name                            : PrometheusMHD.by gianpoker.mkv
Format                                   : Matroska
Format version                           : Version 2
File size                                : 4.67 GiB
Duration                                 : 2h 32mn
Overall bit rate                         : 4 395 Kbps
Movie name                               : Prometheus [MicroHD][1080px][AC3 5.1-DTS Castellano-Ingles+Subs][2012]
Encoded date                             : UTC 2012-10-02 21:46:33
Writing application                      : mkvmerge v3.4.0 ('Rapunzel') realizado en May 15 2010 09:38:20
Writing library                          : libebml v0.8.0 + libmatroska v0.9.0

Video
ID                                       : 1
Format                                   : AVC
Format/Info                              : Advanced Video Codec
Format profile                           : [email protected]
Format settings, CABAC                   : Yes
Format settings, ReFrames                : 5 frames
Codec ID                                 : V_MPEG4/ISO/AVC
Duration                                 : 2h 32mn
Bit rate                                 : 3 219 Kbps
Nominal bit rate                         : 4 316 Kbps
Width                                    : 1 920 pixels
Height                                   : 800 pixels
Display aspect ratio                     : 2.40:1
Frame rate mode                          : Constant
Frame rate                               : 23.976 fps
Color space                              : YUV
Chroma subsampling                       : 4:2:0
Bit depth                                : 8 bits
Scan type                                : Progressive
Bits/(Pixel*Frame)                       : 0.087
Stream size                              : 3.42 GiB (73%)
Title                                    : Prometheus MicroHD 1080px
Writing library                          : x264 core 125 r2200 999b753
Encoding settings                        : cabac=1 / ref=5 / deblock=1:-1:-1 / analyse=0x3:0x113 / me=hex / subme=9 / psy=1 / psy_rd=1.00:0.00 / mixed_ref=1 / me_range=16 / chroma_me=1 / trellis=0 / 8x8dct=1 / cqm=0 / deadzone=21,11 / fast_pskip=1 / chroma_qp_offset=-2 / threads=24 / lookahead_threads=4 / sliced_threads=0 / nr=0 / decimate=1 / interlaced=0 / bluray_compat=0 / constrained_intra=0 / bframes=4 / b_pyramid=2 / b_adapt=1 / b_bias=0 / direct=3 / weightb=1 / open_gop=0 / weightp=2 / keyint=240 / keyint_min=23 / scenecut=40 / intra_refresh=0 / rc_lookahead=40 / rc=2pass / mbtree=1 / bitrate=4316 / ratetol=1.0 / qcomp=0.60 / qpmin=10 / qpmax=51 / qpstep=4 / cplxblur=20.0 / qblur=0.5 / vbv_maxrate=50000 / vbv_bufsize=50000 / nal_hrd=none / ip_ratio=1.40 / aq=1:1.00
Language                                 : English
Default                                  : No
Forced                                   : No

Audio #1
ID                                       : 2
Format                                   : AC-3
Format/Info                              : Audio Coding 3
Mode extension                           : CM (complete main)
Format settings, Endianness              : Big
Codec ID                                 : A_AC3
Duration                                 : 2h 32mn
Bit rate mode                            : Constant
Bit rate                                 : 448 Kbps
Channel(s)                               : 6 channels
Channel positions                        : Front: L C R, Side: L R, LFE
Sampling rate                            : 48.0 KHz
Bit depth                                : 16 bits
Compression mode                         : Lossy
Stream size                              : 488 MiB (10%)
Title                                    : AC3 Castellano
Language                                 : Spanish
Default                                  : No
Forced                                   : Yes

Audio #2
ID                                       : 3
Format                                   : AC-3
Format/Info                              : Audio Coding 3
Mode extension                           : CM (complete main)
Format settings, Endianness              : Big
Codec ID                                 : A_AC3
Duration                                 : 2h 32mn
Bit rate mode                            : Constant
Bit rate                                 : 640 Kbps
Channel(s)                               : 6 channels
Channel positions                        : Front: L C R, Side: L R, LFE
Sampling rate                            : 48.0 KHz
Bit depth                                : 16 bits
Compression mode                         : Lossy
Stream size                              : 697 MiB (15%)
Title                                    : AC3 Ingles
Language                                 : English
Default                                  : No
Forced                                   : No

Text #1
ID                                       : 4
Format                                   : UTF-8
Codec ID                                 : S_TEXT/UTF8
Codec ID/Info                            : UTF-8 Plain Text
Title                                    : Forzados
Language                                 : Spanish
Default                                  : No
Forced                                   : No

Text #2
ID                                       : 5
Format                                   : UTF-8
Codec ID                                 : S_TEXT/UTF8
Codec ID/Info                            : UTF-8 Plain Text
Title                                    : Subtitulos
Language                                 : Spanish
Default                                  : No
Forced                                   : No

Text #3
ID                                       : 6
Format                                   : UTF-8
Codec ID                                 : S_TEXT/UTF8
Codec ID/Info                            : UTF-8 Plain Text
Title                                    : Subtitulos
Language                                 : English
Default                                  : No
Forced                                   : No

Text #4
ID                                       : 7
Format                                   : UTF-8
Codec ID                                 : S_TEXT/UTF8
Codec ID/Info                            : UTF-8 Plain Text
Title                                    : Subtitulos
Language                                 : English
Default                                  : No
Forced                                   : No


İmage



İmage


İmage
İmage


Código:
http://ul.to/jjr1lrc8
http://ul.to/v6hdsd2z
http://ul.to/qp8ypt9n
http://ul.to/ft4b0lpx
http://ul.to/dt44ll0m
http://ul.to/xv3erts3
https://www.oboom.com/F6DY67Z7/pr0mtMHD.1080p.part6.rar
https://www.oboom.com/TYR1XHFK/pr0mtMHD.1080p.part5.rar
https://www.oboom.com/A90VUWLH/pr0mtMHD.1080p.part4.rar
https://www.oboom.com/W8LHB48F/pr0mtMHD.1080p.part3.rar
https://www.oboom.com/K79ESXE1/pr0mtMHD.1080p.part2.rar
https://www.oboom.com/7HA60CV7/pr0mtMHD.1080p.part1.rar
http://www.cloudzilla.to/share/file/61BA52NI53IWOIVTVLETZT0FZ/
http://www.cloudzilla.to/share/file/Y2JRXJIDPWPZOBNERRKXK5JYP/
http://www.cloudzilla.to/share/file/R2D6VFPX3OM2GEJ02J3IAWOAQ/
http://www.cloudzilla.to/share/file/TYRQ0JHPHP2QG3VVUIC5KK3PK/
http://www.cloudzilla.to/share/file/HDCJVTFNJ0I2YVI2XZIBSRNMK/
http://www.cloudzilla.to/share/file/X40AOOIEZ2SOFO61FUG63KH6V/
http://mediafree.co/99kmzd0brgbt/pr0mtMHD.1080p.part1.rar.html
http://mediafree.co/aupgle66i1ow/pr0mtMHD.1080p.part2.rar.html
http://mediafree.co/0jvm035u6wkk/pr0mtMHD.1080p.part3.rar.html
http://mediafree.co/qojrgawcukoz/pr0mtMHD.1080p.part4.rar.html
http://mediafree.co/njv1n8f3asqm/pr0mtMHD.1080p.part5.rar.html
http://mediafree.co/9dpkxfc5ocew/pr0mtMHD.1080p.part6.rar.html
http://www.uploadable.ch/file/P9k8gSXPThFW/pr0mtMHD.1080p.part1.rar
http://www.uploadable.ch/file/68WgS3hw9zBB/pr0mtMHD.1080p.part2.rar
http://www.uploadable.ch/file/TgUEB4GNWQxT/pr0mtMHD.1080p.part3.rar
http://www.uploadable.ch/file/aUsRH2FJzQBu/pr0mtMHD.1080p.part4.rar
http://www.uploadable.ch/file/dSn3dpceD4qg/pr0mtMHD.1080p.part5.rar
http://www.uploadable.ch/file/AdPmRdAhS63b/pr0mtMHD.1080p.part6.rar



İmage
IGNORAR ESTO:
ExtraTags:
prometheus
prometheus online
prometheus online latino
prometheus movie
prometheus online
prometheus online latino
prometheus pelicula
prometheus filmaffinity
prometheus 1080p
prometheus 1080p castellano mega
prometheus 1080p mkv
prometheus 1080p mega latino
prometheus 1080p online
prometheus 1080p dual mega
prometheus 1080p subtitulos
0
İmage


Salto de foro:


Usuarios navegando en este tema: 1 invitado(s)