Calificación:
  • 0 voto(s) - 0 Media
  • 1
  • 2
  • 3
  • 4
  • 5
No hay dos sin tres[MicroHD1080p][Español/Ingles][Comedia]
Novel
Nivel: 28 [NivelNivelNivelNivel]
Rango : 8%
RangoRango
Actividad : 5%
ActividadActividad
Experiencia : 50 %
ExperienciaExperiencia
gianpoker OFF Escritor Friki **
1

  • 1,044

  • 821

  • 2







Respuesta: No hay dos sin tres[MicroHD1080p][Español/Ingles][Comedia] 1044 - 821 - 2   20-08-2014, 10:33 AM
[CENTER]No hay dos sin tres[MicroHD1080p][Español/Ingles.DTS][Comedia]

İmage



Título: No hay dos sin tres
Título original: The Other Woman
País: USA
Estreno en USA: 25/04/2014
Estreno en España: 13/06/2014
Productora: 20th Century Fox
Director: Nick Cassavetes
Guión: Melissa Stack
Reparto: Cameron Diaz, Leslie Mann, Nikolaj Coster-Waldau, Kate Upton, Taylor Kinney. Don Johnson, Nicki Minaj, Kenneth Maharaj, Alyshia Ochse, Victor Cruz, Madison McKinley, David Thornton
Calificación: No recomendada para menores de 12 años

Sinopsis:
Tras descubrir que su novio está casado, Amber (Cameron Diaz) intenta recuperarse y volver a encauzar su vida. Pero cuando conoce accidentalmente a la mujer con la que la estaban engañando (Leslie Mann), se da cuenta de que tienen mucho en común y su acérrima enemiga se convierte en su mejor amiga. Cuando descubren que el marido/novio tenía un nuevo lío de faldas con una impresionante mujer (Kate Upton), las tres se unen para planear su venganza sobre el desgraciado que hasta tres veces las ha traicionado..

Tamaño: 4.78 GB
Formato: Matroska
Video: AVC
Resolucion: 1920 x 800
Format profile: [email protected]
Format settings, ReFrames: 5 frames
Audio 1: DTS 5.1 768 Kbps Castellano SINCRONIZADO
Audio 2: AC3 5.1 448 Kbps Castellano SINCRONIZADO
Audio 3: DTS 5.1 640 kbps Ingles
Subs: (Español e Ingles) + Forzados


İmage

Código:
General
Unique ID : 216147758836857687901669760794935426512 (0xA29C8B4B291C0AFDB2A4926EA5EFFDD0)
Complete name : D:/2sin3.m1080pProper.carl.mkv
Format : Matroska
Format version : Version 2
File size : 4.78 GiB
Duration : 1h 49mn
Overall bit rate : 6 259 Kbps
Encoded date : UTC 2014-08-19 15:16:52
Writing application : mkvmerge v5.0.1 ('Es ist Sommer') built on Oct 9 2011 11:55:43
Writing library : libebml v1.2.2 + libmatroska v1.3.0
Attachment : Yes

Video
ID : 1
Format : AVC
Format/Info : Advanced Video Codec
Format profile : [email protected]
Format settings, CABAC : Yes
Format settings, ReFrames : 2 frames
Codec ID : V_MPEG4/ISO/AVC
Duration : 1h 49mn
Bit rate : 4 279 Kbps
Width : 1 920 pixels
Height : 800 pixels
Display aspect ratio : 2.40:1
Frame rate mode : Constant
Frame rate : 23.976 fps
Color space : YUV
Chroma subsampling : 4:2:0
Bit depth : 8 bits
Scan type : Progressive
Bits/(Pixel*Frame) : 0.116
Stream size : 3.26 GiB (68%)
Writing library : x264 core
Default : Yes
Forced : No
Color primaries : BT.709
Transfer characteristics : BT.709
Matrix coefficients : BT.709

Audio #1
ID : 2
Format : DTS
Format/Info : Digital Theater Systems
Mode : 16
Format settings, Endianness : Big
Codec ID : A_DTS
Duration : 1h 49mn
Bit rate mode : Constant
Bit rate : 768 Kbps
Channel(s) : 6 channels
Channel positions : Front: L C R, Side: L R, LFE
Sampling rate : 48.0 KHz
Bit depth : 24 bits
Compression mode : Lossy
Stream size : 600 MiB (12%)
Language : Spanish
Default : Yes
Forced : No

Audio #2
ID : 3
Format : AC-3
Format/Info : Audio Coding 3
Mode extension : CM (complete main)
Format settings, Endianness : Big
Codec ID : A_AC3
Duration : 1h 49mn
Bit rate mode : Constant
Bit rate : 448 Kbps
Channel(s) : 6 channels
Channel positions : Front: L C R, Side: L R, LFE
Sampling rate : 48.0 KHz
Bit depth : 16 bits
Compression mode : Lossy
Stream size : 350 MiB (7%)
Language : Spanish
Default : No
Forced : No

Audio #3
ID : 4
Format : AC-3
Format/Info : Audio Coding 3
Mode extension : CM (complete main)
Format settings, Endianness : Big
Codec ID : A_AC3
Duration : 1h 49mn
Bit rate mode : Constant
Bit rate : 640 Kbps
Channel(s) : 6 channels
Channel positions : Front: L C R, Side: L R, LFE
Sampling rate : 48.0 KHz
Bit depth : 16 bits
Compression mode : Lossy
Stream size : 500 MiB (10%)
Language : English
Default : No
Forced : No

Text #1
ID : 5
Format : UTF-8
Codec ID : S_TEXT/UTF8
Codec ID/Info : UTF-8 Plain Text
Language : English
Default : No
Forced : No

Text #2
ID : 6
Format : PGS
Muxing mode : zlib
Codec ID : S_HDMV/PGS
Codec ID/Info : The same subtitle format used on BDs/HD-DVDs
Language : Spanish
Default : No
Forced : No

Text #3
ID : 7
Format : PGS
Muxing mode : zlib
Codec ID : S_HDMV/PGS
Codec ID/Info : The same subtitle format used on BDs/HD-DVDs
Language : Spanish
Default : Yes
Forced : Yes

Text #4
ID : 8
Format : UTF-8
Codec ID : S_TEXT/UTF8
Codec ID/Info : UTF-8 Plain Text
Language : Spanish
Default : No
Forced : No

Text #5
ID : 9
Format : UTF-8
Codec ID : S_TEXT/UTF8
Codec ID/Info : UTF-8 Plain Text
Language : Spanish
Default : No
Forced : No


İmage



İmage


İmage
İmage
[/CENTER]


Código:
http://ul.to/sn1sgb2v
http://ul.to/gxv5ei0c
http://ul.to/16you26e

http://www.uploadable.ch/file/eRATqW4VPerH/2sin3.m1080p.part1.rar
http://www.uploadable.ch/file/Kkxf7JpzQf9F/2sin3.m1080p.part2.rar
http://www.uploadable.ch/file/B7wyACzTQmtG/2sin3.m1080p.part3.rar

https://www.oboom.com/8695EP7D
https://www.oboom.com/6VA9QCAW
https://www.oboom.com/VKUM4LP2



İmage
0


Salto de foro:


Usuarios navegando en este tema: 1 invitado(s)