Calificación:
  • 0 voto(s) - 0 Media
  • 1
  • 2
  • 3
  • 4
  • 5
No hay dos sin tres (2014) [BRLiNE 1080p][LiNE Caste+Forz][Comedia]
Novel
Nivel: 13 [NivelNivelNivelNivel]
Rango : 8%
RangoRango
Actividad : 12%
ActividadActividad
Experiencia : 62 %
ExperienciaExperiencia
papianton OFF Miembro **
1

  • 213

  • 212

  • 1







Respuesta: Video  No hay dos sin tres (2014) [BRLiNE 1080p][LiNE Caste+Forz][Comedia] 213 - 212 - 1   03-08-2014, 02:15 AM

İmage

[SIZE="5"]No hay dos sin tres 2014[/SIZE]

İmage

Cita:Título original
The Other Woman
Año
2014
Duración
109 min.
País
Estados Unidos Estados Unidos
Director
Nick Cassavetes
Guión
Melissa Stack
Música
Aaron Zigman
Fotografía
Robert Fraisse
Reparto
Cameron Diaz, Leslie Mann, Kate Upton, Nikolaj Coster-Waldau, Don Johnson, Nicki Minaj, Taylor Kinney, Alyshia Ochse, Madison McKinley, Toshiko Onizawa, Jessica Shea Alverson, Xiren Wang, Maria-Christina Oliveras, Nancy De Mayo
Productora
20th Century Fox / LBI Productions
Género
Romance. Comedia | Comedia romántica. Venganza
Web oficial
http://www.theotherwomanmovie.com
Sinopsis
Tras enterarse de que el hombre con quien sale (Coster-Waldau) está casado, una mujer (Cameron Díaz) descubre además que tiene mucho en común con su esposa (Leslie Mann), por lo que ambas deciden vengarse de él y sus infidelidades. Contarán también con la ayuda de su actual amante (Kate Upton). (FILMAFFINITY)

[SPOILER]
General

Format : Matroska
Format version : Version 2
File size : 3.67 GiB
Duration : 1h 49mn
Overall bit rate : 4 821 Kbps
Movie name : RD
Encoded date : UTC 2014-07-17 20:05:45
Writing application : mkvmerge v5.7.0 ('The Whirlwind') built on Jul 8 2012 20:08:51
Writing library : libebml v1.2.3 + libmatroska v1.3.0

Video
ID : 1
Format : AVC
Format/Info : Advanced Video Codec
Format profile : [email protected]
Format settings, CABAC : Yes
Format settings, ReFrames : 5 frames
Codec ID : V_MPEG4/ISO/AVC
Duration : 1h 49mn
Bit rate : 4 500 Kbps
Width : 1 920 pixels
Height : 800 pixels
Display aspect ratio : 2.40:1
Frame rate : 23.976 fps
Color space : YUV
Chroma subsampling : 4:2:0
Bit depth : 8 bits
Scan type : Progressive
Bits/(Pixel*Frame) : 0.122
Stream size : 3.36 GiB (91%)
Writing library : x264 core 130 r2273 b3065e6
Encoding settings : cabac=1 / ref=5 / deblock=1:-1:-1 / analyse=0x3:0x113 / me=umh / subme=8 / psy=1 / psy_rd=1.00:0.15 / mixed_ref=1 / me_range=16 / chroma_me=1 / trellis=1 / 8x8dct=1 / cqm=0 / deadzone=21,11 / fast_pskip=1 / chroma_qp_offset=-3 / threads=12 / lookahead_threads=2 / sliced_threads=0 / nr=0 / decimate=1 / interlaced=0 / bluray_compat=0 / constrained_intra=0 / bframes=3 / b_pyramid=2 / b_adapt=2 / b_bias=0 / direct=3 / weightb=1 / open_gop=0 / weightp=2 / keyint=240 / keyint_min=24 / scenecut=40 / intra_refresh=0 / rc_lookahead=50 / rc=2pass / mbtree=1 / bitrate=4500 / ratetol=1.0 / qcomp=0.60 / qpmin=0 / qpmax=69 / qpstep=4 / cplxblur=20.0 / qblur=0.5 / vbv_maxrate=62500 / vbv_bufsize=78125 / nal_hrd=none / ip_ratio=1.40 / aq=1:1.00
Language : English
Color primaries : BT.709-5, BT.1361, IEC 61966-2-4, SMPTE RP177
Transfer characteristics : BT.709-5, BT.1361
Matrix coefficients : BT.709-5, BT.1361, IEC 61966-2-4 709, SMPTE RP177

Audio
ID : 2
Format : MPEG Audio
Format version : Version 1
Format profile : Layer 3
Mode : Joint stereo
Codec ID : A_MPEG/L3
Codec ID/Hint : MP3
Duration : 1h 49mn
Bit rate mode : Constant
Bit rate : 320 Kbps
Channel(s) : 2 channels
Sampling rate : 48.0 KHz
Compression mode : Lossy
Stream size : 250 MiB (7%)
Writing library : LAME3.99r
Encoding settings : -m j -V 4 -q 3 -lowpass 20.5
Language : Spanish

Text
ID : 3
Format : UTF-8
Codec ID : S_TEXT/UTF8
Codec ID/Info : UTF-8 Plain Text
Title : Sub Forzados.
Language : Spanish

Menu
00:00:00.000 : en:Chapter 1
00:03:06.186 : en:Chapter 2
00:05:45.261 : en:Chapter 3
00:07:21.274 : en:Chapter 4
00:10:21.370 : en:Chapter 5
00:14:17.231 : en:Chapter 6
00:16:45.421 : en:Chapter 7
00:19:47.686 : en:Chapter 8
00:21:18.443 : en:Chapter 9
00:24:01.648 : en:Chapter 10
00:28:16.861 : en:Chapter 11
00:32:34.035 : en:Chapter 12
00:35:41.180 : en:Chapter 13
00:39:06.260 : en:Chapter 14
00:41:54.803 : en:Chapter 15
00:44:53.315 : en:Chapter 16
00:48:33.368 : en:Chapter 17
00:52:33.191 : en:Chapter 18
00:55:54.976 : en:Chapter 19
00:58:20.788 : en:Chapter 20
01:00:20.908 : en:Chapter 21
01:03:18.711 : en:Chapter 22
01:08:35.528 : en:Chapter 23
01:11:03.550 : en:Chapter 24
01:14:28.922 : en:Chapter 25
01:17:21.053 : en:Chapter 26
01:22:13.136 : en:Chapter 27
01:26:42.030 : en:Chapter 28
01:30:03.523 : en:Chapter 29
01:35:01.696 : en:Chapter 30
01:42:25.430 : en:Chapter 31
01:44:27.594 : en:Chapter 32
[/SPOILER]

CAPTURAS

İmage

İmage
İmage
[SIZE="3"][COLOR="Red"]*SERVIDORES FREE + SERVIDORES DE EXCELENTE VELOCIDAD*[/COLOR]
[/SIZE]

UPTOBOX (libre y descargas como premium) | 4UPFILES | UPLOADED +
STATUS LINKS BINBOX İmage
Código:
http://www.pastensn.com/OsE0OTqT

0


Salto de foro:


Usuarios navegando en este tema: 1 invitado(s)