Calificación:
  • 0 voto(s) - 0 Media
  • 1
  • 2
  • 3
  • 4
  • 5
Minuscule:El Valle de las Hormigas Perdidas[MHD1080p]Español
Novel
Nivel: 28 [NivelNivelNivelNivel]
Rango : 8%
RangoRango
Actividad : 5%
ActividadActividad
Experiencia : 50 %
ExperienciaExperiencia
gianpoker OFF Escritor Friki **
1

  • 1,044

  • 821

  • 2







Respuesta: Minuscule:El Valle de las Hormigas Perdidas[MHD1080p]Español 1044 - 821 - 2   15-08-2014, 09:53 AM
Minuscule: El Valle de las Hormigas Perdidas[MicroHD1080p][Español][2013]

İmage



Título original : Minuscule: La vallée des fourmis perdues (Minuscule: Valley of the Lost Ants) / Minuscule: El Valle de las Hormigas Perdidas
Año : 2013
Duración : 82 min.
País : Francia
Director : Thomas Szabo, Hélène Giraud
Guión : Thomas Szabo, Hélène Giraud
Música : Hervé Lavandier
Fotografía : Animation
Reparto : Animation
Productora : Futurikon Films
Animación. Aventuras. Bélico. Infantil | Insectos. Naturaleza. 3-D

Sinopsis:
El director Thomas Szabo lleva a la gran pantalla a los personajes de su serie televisiva de animación Minuscule. En el tranquilo claro de un bosque, los restos de un picnic abandonados encienden la guerra entre dos tribus de hormigas. En juego está una caja de azúcar. Una intrépida mariquita se ve atrapada en medio de la batalla. Un viaje épico a ras del suelo.

Tamaño: 3.59 GB
Formato: Matroska - 2pass - Ripeo y Montaje Propio
Video: AVC
Resolucion: 1920 x 800
Format profile: [email protected]
Format settings, ReFrames: 4 frames
Audio 1: DTS 5.1 768 Kbps
Audio 2: AC3 5.1 640 Kbps
Subs: Forzados Español


İmage

Código:
General
Unique ID : 174038411104593131524933029724105922149 (0x82EE94286F650018B9AD1033B3C6D665)
Complete name : D:\Minuscule.m1080p.carl.mkv
Format : Matroska
Format version : Version 2
File size : 3.59 GiB
Duration : 1h 28mn
Overall bit rate : 5 814 Kbps
Encoded date : UTC 2014-08-14 01:22:58
Writing application : mkvmerge v5.3.0 ('I could have danced') built on Feb 9 2012 10:38:07
Writing library : libebml v1.2.3 + libmatroska v1.3.0

Video
ID : 1
Format : AVC
Format/Info : Advanced Video Codec
Format profile : [email protected]
Format settings, CABAC : Yes
Format settings, ReFrames : 4 frames
Codec ID : V_MPEG4/ISO/AVC
Duration : 1h 28mn
Bit rate : 4 403 Kbps
Width : 1 920 pixels
Height : 800 pixels
Display aspect ratio : 2.40:1
Frame rate mode : Constant
Frame rate : 23.976 fps
Color space : YUV
Chroma subsampling : 4:2:0
Bit depth : 8 bits
Scan type : Progressive
Bits/(Pixel*Frame) : 0.120
Stream size : 2.65 GiB (74%)
Writing library : x264 core 130 r2273 b3065e6
Encoding settings : cabac=1 / ref=4 / deblock=1:-2:-1 / analyse=0x3:0x113 / me=umh / subme=7 / psy=1 / psy_rd=1.00:0.00 / mixed_ref=1 / me_range=32 / chroma_me=1 / trellis=1 / 8x8dct=1 / cqm=0 / deadzone=21,11 / fast_pskip=1 / chroma_qp_offset=-2 / threads=6 / lookahead_threads=1 / sliced_threads=0 / nr=0 / decimate=1 / interlaced=0 / bluray_compat=0 / constrained_intra=0 / bframes=3 / b_pyramid=0 / b_adapt=2 / b_bias=0 / direct=1 / weightb=1 / open_gop=0 / weightp=2 / keyint=240 / keyint_min=24 / scenecut=40 / intra_refresh=0 / rc_lookahead=40 / rc=2pass / mbtree=1 / bitrate=4403 / ratetol=1.0 / qcomp=0.60 / qpmin=0 / qpmax=69 / qpstep=4 / cplxblur=20.0 / qblur=0.5 / ip_ratio=1.40 / aq=1:1.00
Language : Spanish
Default : Yes
Forced : No
Color primaries : BT.709
Transfer characteristics : BT.709
Matrix coefficients : BT.709

Audio #1
ID : 2
Format : DTS
Format/Info : Digital Theater Systems
Mode : 16
Format settings, Endianness : Big
Codec ID : A_DTS
Duration : 1h 28mn
Bit rate mode : Constant
Bit rate : 768 Kbps
Channel(s) : 6 channels
Channel positions : Front: L C R, Side: L R, LFE
Sampling rate : 48.0 KHz
Bit depth : 16 bits
Compression mode : Lossy
Delay relative to video : 11ms
Stream size : 486 MiB (13%)
Language : Spanish
Default : Yes
Forced : No

Audio #2
ID : 3
Format : AC-3
Format/Info : Audio Coding 3
Mode extension : CM (complete main)
Format settings, Endianness : Big
Codec ID : A_AC3
Duration : 1h 28mn
Bit rate mode : Constant
Bit rate : 640 Kbps
Channel(s) : 6 channels
Channel positions : Front: L C R, Side: L R, LFE
Sampling rate : 48.0 KHz
Bit depth : 16 bits
Compression mode : Lossy
Stream size : 405 MiB (11%)
Language : Spanish
Default : No
Forced : No

Text
ID : 4
Format : UTF-8
Codec ID : S_TEXT/UTF8
Codec ID/Info : UTF-8 Plain Text
Language : Spanish
Default : Yes
Forced : Yes


İmage



İmage


İmage
İmage



Código:
http://ul.to/52h5xby5
http://ul.to/xjbufs09
http://ul.to/4xjko7ir
http://ul.to/ih24cd3k
http://ul.to/6gqt84j3

http://www.uploadable.ch/file/ATYvZmTYb2qp/Minuscule.m1080p By gianpoker.part1.rar
http://www.uploadable.ch/file/hPRGU9yQXE8P/Minuscule.m1080p By gianpoker.part2.rar
http://www.uploadable.ch/file/7P89eP6NSwmA/Minuscule.m1080p By gianpoker.part3.rar
http://www.uploadable.ch/file/VrBgvzcTpcp7/Minuscule.m1080p By gianpoker.part4.rar
http://www.uploadable.ch/file/9hetynqynT2q/Minuscule.m1080p By gianpoker.part5.rar

https://www.oboom.com/RTHXBJLU
https://www.oboom.com/Y9Y5VPJO
https://www.oboom.com/20ONYRO4
https://www.oboom.com/JMXTL4F6
https://www.oboom.com/2DBQUCVN



İmage
0
Novel
Nivel: 4 [NivelNivelNivel]
Rango : 8%
RangoRango
Actividad : 49%
ActividadActividad
Experiencia : 31 %
ExperienciaExperiencia
trashertrash OFF Miembro Junior **
2

  • 31

  • 0

  • 1







Respuesta: Minuscule:El Valle de las Hormigas Perdidas[MHD1080p]Español 31 - 0 - 1   16-08-2014, 12:59 AM
Excelente aporte. Muchas gracias.
0


Salto de foro:


Usuarios navegando en este tema: 1 invitado(s)