Calificación:
  • 0 voto(s) - 0 Media
  • 1
  • 2
  • 3
  • 4
  • 5
Metro Manila[MicroHD1080p][Español/Tagalog.AC3][Crimen]
Novel
Nivel: 28 [NivelNivelNivelNivel]
Rango : 8%
RangoRango
Actividad : 5%
ActividadActividad
Experiencia : 50 %
ExperienciaExperiencia
gianpoker OFF Escritor Friki **
1

  • 1,044

  • 821

  • 2







Respuesta: Metro Manila[MicroHD1080p][Español/Tagalog.AC3][Crimen] 1044 - 821 - 2   10-08-2014, 02:20 AM
Metro Manila[MicroHD1080p][Español/Tagalog.AC3][Crimen]

İmage



Título original: Metro Manila
País: Reino Unido
Estreno en USA:
Estreno en España: 22/11/2013
Productora: Chocolate Frog Films
Director: Sean Ellis
Guión: Sean Ellis, Frank E. Flowers
Reparto: Jake Macapagal, John Arcilla, Althea Vega, Miles Canapi, Ana Abad-Santos, Moises Magisa, JM Rodriguez, Erin Panlilio
Género: Drama. Thriller | Crimen

Sinopsis:
Oscar y su familia dejan los campos de arroz del Norte de Filipinas para mudarse a la asfixiante ciudad de Manila. Allí, Oscar cree tener un golpe de suerte cuando le ofrecen un trabajo estable en una compañía de camiones blindados, pero se trata de un trabajo peligroso con un alto índice de mortalidad.

Tamaño: 4.78 GB
Formato: Matroska
Video: AVC
Resolucion: 1920 x 1036
Format profile: [email protected]
Format settings, ReFrames: 2 frames
Audio 1: AC3 5.1 448 Kbps Castellano
Audio 2: AC3 5.1 640 kbps Tagalog
Subs: Español


İmage

Código:
Format : Matroska
Format version : Version 2
File size : 4.78 GiB
Duration : 1h 54mn
Overall bit rate : 5 977 Kbps
Encoded date : UTC 2014-08-08 14:59:54
Writing application : mkvmerge v5.3.0 ('I could have danced') built on Feb 9 2012 10:38:07
Writing library : libebml v1.2.3 + libmatroska v1.3.0

Video
ID : 1
Format : AVC
Format/Info : Advanced Video Codec
Format profile : [email protected]
Format settings, CABAC : Yes
Format settings, ReFrames : 2 frames
Codec ID : V_MPEG4/ISO/AVC
Duration : 1h 54mn
Bit rate : 4 770 Kbps
Width : 1 920 pixels
Height : 1 036 pixels
Display aspect ratio : 1.85:1
Frame rate mode : Constant
Frame rate : 24.000 fps
Color space : YUV
Chroma subsampling : 4:2:0
Bit depth : 8 bits
Scan type : Progressive
Bits/(Pixel*Frame) : 0.100
Stream size : 3.82 GiB (80%)
Writing library : x264 core
Language : Spanish
Default : Yes
Forced : No
Color primaries : BT.709
Transfer characteristics : BT.709
Matrix coefficients : BT.709

Audio #1
ID : 2
Format : AC-3
Format/Info : Audio Coding 3
Mode extension : CM (complete main)
Format settings, Endianness : Big
Codec ID : A_AC3
Duration : 1h 54mn
Bit rate mode : Constant
Bit rate : 448 Kbps
Channel(s) : 6 channels
Channel positions : Front: L C R, Side: L R, LFE
Sampling rate : 48.0 KHz
Bit depth : 16 bits
Compression mode : Lossy
Stream size : 367 MiB (7%)
Title : Castellano AC3 5.1
Language : Spanish
Default : Yes
Forced : No

Audio #2
ID : 3
Format : AC-3
Format/Info : Audio Coding 3
Mode extension : CM (complete main)
Format settings, Endianness : Big
Codec ID : A_AC3
Duration : 1h 54mn
Bit rate mode : Constant
Bit rate : 640 Kbps
Channel(s) : 6 channels
Channel positions : Front: L C R, Side: L R, LFE
Sampling rate : 48.0 KHz
Bit depth : 16 bits
Compression mode : Lossy
Stream size : 525 MiB (11%)
Language : Tagalog
Default : No
Forced : No

Text #1
ID : 4
Format : ASS
Codec ID : S_TEXT/ASS
Codec ID/Info : Advanced Sub Station Alpha
Compression mode : Lossless
Title : Arriba
Language : Spanish
Default : No
Forced : No

Text #2
ID : 5
Format : UTF-8
Codec ID : S_TEXT/UTF8
Codec ID/Info : UTF-8 Plain Text
Title : Abajo
Language : Spanish
Default : No
Forced : No


İmage



İmage



İmage
İmage



Código:
http://ul.to/1s2m18hb
http://ul.to/pvkj5cbf
http://ul.to/3q2f2j50

http://www.uploadable.ch/file/ANEeKKS9abMB/Metro..m1080p.part1.rar
http://www.uploadable.ch/file/YTHRgVkBjS2a/Metro..m1080p.part2.rar
http://www.uploadable.ch/file/Tuv5uB265mqV/Metro..m1080p.part3.rar

https://www.oboom.com/HU9IPNA8
https://www.oboom.com/PQKG8OEW
https://www.oboom.com/B5LJKM4L


İmage
0


Salto de foro:


Usuarios navegando en este tema: 1 invitado(s)