Calificación:
  • 0 voto(s) - 0 Media
  • 1
  • 2
  • 3
  • 4
  • 5
Maléfica (2014) [DVD-Screener][MiC DubbeD HQ Castellano][Fantasia]
Novel
Nivel: 13 [NivelNivelNivelNivel]
Rango : 8%
RangoRango
Actividad : 12%
ActividadActividad
Experiencia : 62 %
ExperienciaExperiencia
papianton OFF Miembro **
1

  • 213

  • 212

  • 1







Respuesta: Video  Maléfica (2014) [DVD-Screener][MiC DubbeD HQ Castellano][Fantasia] 213 - 212 - 1   19-08-2014, 01:27 PM

İmage

[SIZE="5"]Maléfica 2014[/SIZE]

İmage

Cita:Título original
Maleficent
Año
2014
Duración
97 min.
País
Estados Unidos Estados Unidos
Director
Robert Stromberg
Guión
Linda Woolverton, Paul Dini, John Lee Hancock
Música
James Newton Howard
Fotografía
Dean Semler
Reparto
Angelina Jolie, Elle Fanning, Juno Temple, Sharlto Copley, Kenneth Cranham, Lesley Manville, Imelda Staunton, Sam Riley, Ella Purnell, Brenton Thwaites, Christian Wolf-La'Moy
Productora
Walt Disney Pictures / Moving Picture Company (MPC) / Roth Films
Género
Fantástico. Aventuras | Cuentos. 3-D
Web oficial
http://movies.disney.com/maleficent
Sinopsis
Es la historia jamás contada de Maléfica, la villana más querida de Disney, la mala de "Sleeping Beauty" (La Bella durmiente), el clásico de 1959. La película relata los acontecimientos que endurecieron su corazón y la llevaron a lanzar una maldición sobre la pequeña Aurora. (FILMAFFINITY)

[SPOILER]
General

Format : AVI
Format/Info : Audio Video Interleave
File size : 1.32 GiB
Duration : 1h 37mn
Overall bit rate : 1 936 Kbps
Writing application : VirtualDubMod 1.5.10.2 (build 2542/release)
Writing library : VirtualDubMod build 2542/release

Video
ID : 0
Format : MPEG-4 Visual
Format profile : Advanced [email protected]
Format settings, BVOP : 2
Format settings, QPel : No
Format settings, GMC : No warppoints
Format settings, Matrix : Default (MPEG)
Codec ID : XVID
Codec ID/Hint : XviD
Duration : 1h 37mn
Bit rate : 1 607 Kbps
Width : 720 pixels
Height : 304 pixels
Display aspect ratio : 2.35:1
Frame rate : 23.976 fps
Color space : YUV
Chroma subsampling : 4:2:0
Bit depth : 8 bits
Scan type : Progressive
Compression mode : Lossy
Bits/(Pixel*Frame) : 0.306
Stream size : 1.09 GiB (83%)
Writing library : XviD 1.2.1 (UTC 2008-12-04)

Audio
ID : 1
Format : MPEG Audio
Format version : Version 1
Format profile : Layer 3
Codec ID : 55
Codec ID/Hint : MP3
Duration : 1h 37mn
Bit rate mode : Constant
Bit rate : 320 Kbps
Channel(s) : 2 channels
Sampling rate : 44.1 KHz
Compression mode : Lossy
Stream size : 223 MiB (17%)
Alignment : Split accross interleaves
Interleave, duration : 42 ms (1.00 video frame)
Interleave, preload duration : 500 ms
[/SPOILER]

CAPTURAS

İmage

İmage
İmage
[SIZE="3"][COLOR="Red"]*SERVIDORES FREE + SERVIDORES DE EXCELENTE VELOCIDAD*[/COLOR]
[/SIZE]

STATUS LINKS BINBOX İmage
Código:
https://binbox.io/1FQZs#NJcHmg2K

0


Salto de foro:


Usuarios navegando en este tema: 1 invitado(s)