Calificación:
  • 0 voto(s) - 0 Media
  • 1
  • 2
  • 3
  • 4
  • 5
Los chicos de mi vida[720p.HDiTunes][Español-Ingles.AC3]
Novel
Nivel: 28 [NivelNivelNivelNivel]
Rango : 8%
RangoRango
Actividad : 5%
ActividadActividad
Experiencia : 50 %
ExperienciaExperiencia
gianpoker OFF Escritor Friki **

  • 1,044

  • 821

  • 2







Respuesta: Los chicos de mi vida[720p.HDiTunes][Español-Ingles.AC3] 1044 - 821 - 2   07-08-2014, 08:00 AM
Los chicos de mi vida[720p.HDiTunes][Español-Ingles.AC3]

İmage



Título original: Riding in Cars with Boys
Año: 2001
Duración: 128 min.
País: Estados Unidos Estados Unidos
Director: Penny Marshall
Guión: Morgan Upton Ward (Novela: Beverly Donofrio)
Música: Hans Zimmer, Heitor Pereira
Fotografía: Miroslav Ondricek
Reparto: Drew Barrymore, Steve Zahn, Brittany Murphy, Adam García, Lorraine Bracco, James Woods, Peter Facinelli, Mika Boorem, Cody Arens, Logan Lerman, Desmond Harrington, Jordan Gelber, Sara Gilbert, Rosie Perez, Maggie Gyllenhaal, David Moscow, Paz de la Huerta, Gabriel Carpenter
Productora: Columbia Pictures / Gracie Films
Género: Drama. Comedia. Romance | Basado en hechos reales. Biográfico. Años 60

Sinopsis:

Bev es una chica inteligente que sueña con marcharse a Nueva York y llegar a ser escritora; pero, al mismo tiempo, es la típica adolescente voluble, rebelde y loca por los chicos. En una fiesta conoce a Ray, un chico no muy despierto y, pocos meses después, ambos se quedan anonadados al enterarse del inesperado e involuntario embarazo de ella. (FILMAFFINITY)

Fuente: HDiTunes
Resolución: 1280x718
Formato: Mkv
Tamaño: ~4.50 GB
Duración: ~2h 11mn. aprox.
Audio 1: Español AC3 5.1 448 Kbps (Extraído directamente del DVDFull)
Audio 2: Inglés AC3 5.1 384 Kbps
Subtítulos: Español - Inglés + Forzados


İmage

Código:
General
Unique ID : 199205230495315005300523948927181928820 (0x95DD882740B1BC12B2D65B3CAA703974)
Complete name : Los chicos de mi vida.[2001][720p.HDiTunes][AC3.Dual.Subs][by.FerranGB].mkv
Format : Matroska
Format version : Version 4 / Version 2
File size : 4.50 GiB
Duration : 2h 11mn
Overall bit rate : 4 911 Kbps
Movie name : Los chicos de mi vida. [2001][720p.HDiTunes][AC3.Dual.Subs][by.FerranGB]
Encoded date : UTC 2014-07-23 21:30:08
Writing application : mkvmerge v6.2.0 ('Promised Land') built on Apr 28 2013 12:22:01
Writing library : libebml v1.3.0 + libmatroska v1.4.0

Video
ID : 1
Format : AVC
Format/Info : Advanced Video Codec
Format profile : [email protected]
Format settings, CABAC : No
Format settings, ReFrames : 2 frames
Codec ID : V_MPEG4/ISO/AVC
Duration : 2h 11mn
Bit rate : 3 981 Kbps
Width : 1 280 pixels
Height : 718 pixels
Display aspect ratio : 16:9
Frame rate mode : Constant
Frame rate : 23.976 fps
Color space : YUV
Chroma subsampling : 4:2:0
Bit depth : 8 bits
Scan type : Progressive
Bits/(Pixel*Frame) : 0.181
Stream size : 3.65 GiB (81%)
Language : English
Default : Yes
Forced : No
Color primaries : BT.709
Transfer characteristics : BT.709
Matrix coefficients : BT.709

Audio #1
ID : 2
Format : AC-3
Format/Info : Audio Coding 3
Mode extension : CM (complete main)
Format settings, Endianness : Big
Codec ID : A_AC3
Duration : 2h 11mn
Bit rate mode : Constant
Bit rate : 448 Kbps
Channel(s) : 6 channels
Channel positions : Front: L C R, Side: L R, LFE
Sampling rate : 48.0 KHz
Bit depth : 16 bits
Compression mode : Lossy
Stream size : 421 MiB (9%)
Title : AC3 5.1 @448 Kbps
Language : Spanish
Default : Yes
Forced : No

Audio #2
ID : 3
Format : AC-3
Format/Info : Audio Coding 3
Mode extension : CM (complete main)
Format settings, Endianness : Big
Codec ID : A_AC3
Duration : 2h 11mn
Bit rate mode : Constant
Bit rate : 384 Kbps
Channel(s) : 6 channels
Channel positions : Front: L C R, Side: L R, LFE
Sampling rate : 48.0 KHz
Bit depth : 16 bits
Compression mode : Lossy
Stream size : 361 MiB (8%)
Title : AC3 5.1 @384 Kbps
Language : English
Default : No
Forced : No

Text #1
ID : 4
Format : UTF-8
Codec ID : S_TEXT/UTF8
Codec ID/Info : UTF-8 Plain Text
Title : Forzados
Language : Spanish
Default : Yes
Forced : No

Text #2
ID : 5
Format : UTF-8
Codec ID : S_TEXT/UTF8
Codec ID/Info : UTF-8 Plain Text
Title : Completos
Language : Spanish
Default : No
Forced : No

Text #3
ID : 6
Format : UTF-8
Codec ID : S_TEXT/UTF8
Codec ID/Info : UTF-8 Plain Text
Title : Completos
Language : English
Default : No
Forced : No

Menu
00:00:00.000 : en:Start
00:02:51.000 : en:A woman at 11
00:12:06.000 : en:The party
00:15:54.000 : en:Ray meets Bev
00:19:52.000 : en:In cars with boys
00:27:03.000 : en:"Please marry me."
00:29:25.000 : en:Taking Fay's advice
00:32:13.000 : en:Plans go awry
00:34:25.000 : en:The wedding reception
00:42:35.000 : en:"This is our place!"
00:45:50.000 : en:Two weeks late
00:48:47.000 : en:"It's a boy."
00:54:41.000 : en:D-I-V-O-R-C-E
00:57:52.000 : en:Scholarship interview
00:59:44.000 : en:"Where were you?"
01:05:20.000 : en:Backyard high
01:10:38.000 : en:Jason's birthday party
01:15:39.000 : en:California offer
01:20:35.000 : en:"I'm a junkie."
01:23:02.000 : en:Cold turkey
01:28:21.000 : en:Goodnight and goodbye
01:37:51.000 : en:Drying weed
01:40:03.000 : en:Fay's deal with Dennis
01:44:56.000 : en:Shirley and Ray
01:52:07.000 : en:Best thing he ever did
01:54:55.000 : en:Incredibly screwed up
01:57:56.000 : en:"You saved me."
02:01:47.000 : en:"All I have to do is dream"



İmage



İmage



İmage
İmage



Código:
http://ul.to/zqjv5gfc
http://ul.to/2g43orl5
http://ul.to/qmrwuz7m

http://www.uploadable.ch/file/xXRjK7dmAHUR/chicos.vida.720p.part1.rar
http://www.uploadable.ch/file/vTgxKXv3rUUQ/chicos.vida.720p.part2.rar
http://www.uploadable.ch/file/ZAycdZGjNcQ6/chicos.vida.720p.part3.rar

http://xerver.co/n53uxcc2wtst/chicos.vida.720p.part1.rar
http://xerver.co/huj8cb8276dt/chicos.vida.720p.part2.rar
http://xerver.co/tq0ztq7496qw/chicos.vida.720p.part3.rar


İmage
0


Salto de foro:


Usuarios navegando en este tema: 1 invitado(s)