Calificación:
  • 0 voto(s) - 0 Media
  • 1
  • 2
  • 3
  • 4
  • 5
La Última Llamada[BDREMUX.1080p][Español.AC3/Ingles.DTS]
Novel
Nivel: 28 [NivelNivelNivelNivel]
Rango : 8%
RangoRango
Actividad : 5%
ActividadActividad
Experiencia : 50 %
ExperienciaExperiencia
gianpoker OFF Escritor Friki **
1

  • 1,044

  • 821

  • 2







Respuesta: La Última Llamada[BDREMUX.1080p][Español.AC3/Ingles.DTS] 1044 - 821 - 2   08-08-2014, 06:19 AM
La Última Llamada[BDREMUX.1080p][Español.AC3/Ingles.DTS][2013]

İmage



Título original: The Call
Año: 2013
Duración: 95 min.
País: Estados Unidos
Director: Brad Anderson
Guión: Richard D'Ovidio
Música: John Debney
Fotografía: Tom Yatsko
Reparto: Halle Berry, Abigail Breslin, Morris Chestnut, Michael Imperioli, Ella Rae Peck, Roma Maffia, Justina Machado, José Zúñiga
Productora: Graup Entertainment / Troika Pictures
Género: Thriller. Intriga | Crimen. Asesinos en serie. Secuestros / Desapariciones

SINOPSIS:

Tras un trágico incidente durante una de las llamadas que atendió, Jordan (Halle Berry), una operadora telefónica de la línea del 911 de la policía, deberá de superar sus propios miedos para intentar salvar la vida de Casey (Abigail Breslin), una joven que ha sido secuestrada por un asesino en serie. La llamada de la joven, en un caso muy parecido al que le causó el trauma, enfrentará a Jordan con sus peores temores de su pasado.


İmage

Código:
General
Unique ID : 296412012967488439032404705115194904815 (0xDEFEE08DE2FB11C6A172428C66D9D0EF)
Complete name : La.Última.Llamada.BDREMUX.1080p.AC3.DTS-HD.Dual.Bluray.2013.[TRCKHD].mkv
Format : Matroska
Format version : Version 4 / Version 2
File size : 19.5 GiB
Duration : 1h 34mn
Overall bit rate mode : Variable
Overall bit rate : 29.6 Mbps
Encoded date : UTC 2014-02-09 00:46:51
Writing application : mkvmerge v6.7.0 ( 'Back to the Ground' ) 64bit built on Jan 8 2014 15:19:56
Writing library : libebml v1.3.0 + libmatroska v1.4.1

Video
ID : 1
Format : AVC
Format/Info : Advanced Video Codec
Format profile : [email protected]
Format settings, CABAC : Yes
Format settings, ReFrames : 2 frames
Format settings, GOP : M=1, N=10
Codec ID : V_MPEG4/ISO/AVC
Duration : 1h 34mn
Bit rate mode : Variable
Bit rate : 27.0 Mbps
Width : 1 920 pixels
Height : 1 080 pixels
Display aspect ratio : 16:9
Frame rate : 23.976 fps
Color space : YUV
Chroma subsampling : 4:2:0
Bit depth : 8 bits
Scan type : Progressive
Bits/(Pixel*Frame) : 0.543
Stream size : 17.8 GiB (91%)
Title : Última Llamada BDRemux 1080p
Language : English
Default : Yes
Forced : No

Audio #1
ID : 2
Format : AC-3
Format/Info : Audio Coding 3
Mode extension : CM (complete main)
Codec ID : A_AC3
Duration : 1h 34mn
Bit rate mode : Constant
Bit rate : 448 Kbps
Channel(s) : 6 channels
Channel positions : Front: L C R, Side: L R, LFE
Sampling rate : 48.0 KHz
Bit depth : 16 bits
Compression mode : Lossy
Delay relative to video : 12s 500ms
Stream size : 302 MiB (2%)
Title : AC3 5.1 Español
Language : Spanish
Default : Yes
Forced : No

Audio #2
ID : 3
Format : DTS
Format/Info : Digital Theater Systems
Format profile : MA / Core
Codec ID : A_DTS
Duration : 1h 34mn
Bit rate mode : Variable
Bit rate : 1 561 Kbps / 1 510 Kbps
Channel(s) : 6 channels
Channel positions : Front: L C R, Side: L R, LFE
Sampling rate : 48.0 KHz
Bit depth : 24 bits
Compression mode : Lossless / Lossy
Title : DTS-HD English
Language : English
Default : No
Forced : No

Text #1
ID : 4
Format : UTF-8
Codec ID : S_TEXT/UTF8
Codec ID/Info : UTF-8 Plain Text
Title : Subs Español
Language : Spanish
Default : No
Forced : No

Text #2
ID : 5
Format : UTF-8
Codec ID : S_TEXT/UTF8
Codec ID/Info : UTF-8 Plain Text
Title : Subs English
Language : English
Default : No
Forced : No

Menu
00:00:00.000 : en:00:00:00.000
00:06:26.678 : en:00:06:26.678
00:12:30.500 : en:00:12:30.500
00:17:15.034 : en:00:17:15.034
00:24:12.409 : en:00:24:12.409
00:30:43.759 : en:00:30:43.759
00:36:00.075 : en:00:36:00.075
00:42:41.726 : en:00:42:41.726
00:46:51.892 : en:00:46:51.892
00:49:57.912 : en:00:49:57.912
00:54:50.913 : en:00:54:50.913
01:01:31.563 : en:01:01:31.563
01:06:08.173 : en:01:06:08.173
01:12:30.638 : en:01:12:30.638
01:20:04.216 : en:01:20:04.216
01:26:01.782 : en:01:26:01.782



İmage



İmage



İmage
İmage



Código:
http://ul.to/mubmfa7t
http://ul.to/2dbvjjl9
http://ul.to/9ebe4kcb
http://ul.to/s5uquth0
http://ul.to/0bjh82pt
http://ul.to/d0azaqdg
http://ul.to/iosqzlh1
http://ul.to/vs327bbg
http://ul.to/uyo89xlc
http://ul.to/stjccded
http://ul.to/42vrvq2b

http://www.uploadable.ch/file/UztpZNsMSzjE/ultima.timbrada.1080p.part01.rar
http://www.uploadable.ch/file/pHmxqAmS7sYd/ultima.timbrada.1080p.part02.rar
http://www.uploadable.ch/file/K5YFas8d59dB/ultima.timbrada.1080p.part03.rar
http://www.uploadable.ch/file/utDTCCgCpDrT/ultima.timbrada.1080p.part04.rar
http://www.uploadable.ch/file/nGkUzSGnz8Nd/ultima.timbrada.1080p.part05.rar
http://www.uploadable.ch/file/wWsaCcke59NF/ultima.timbrada.1080p.part06.rar
http://www.uploadable.ch/file/aGYG2zPqH8Zy/ultima.timbrada.1080p.part07.rar
http://www.uploadable.ch/file/zTS7CqkAna9G/ultima.timbrada.1080p.part08.rar
http://www.uploadable.ch/file/Spht9yFUPrWT/ultima.timbrada.1080p.part09.rar
http://www.uploadable.ch/file/xF3cGVsZ7gTB/ultima.timbrada.1080p.part10.rar
http://www.uploadable.ch/file/kBgnFRFHyQxE/ultima.timbrada.1080p.part11.rar



İmage
0


Salto de foro:


Usuarios navegando en este tema: 1 invitado(s)