Calificación:
  • 0 voto(s) - 0 Media
  • 1
  • 2
  • 3
  • 4
  • 5
I am a Director[MICROHD720p][Español.AC3][Comedia][2012]
Novel
Nivel: 28 [NivelNivelNivelNivel]
Rango : 8%
RangoRango
Actividad : 5%
ActividadActividad
Experiencia : 50 %
ExperienciaExperiencia
gianpoker OFF Escritor Friki **

  • 1,044

  • 821

  • 2







Respuesta: I am a Director[MICROHD720p][Español.AC3][Comedia][2012] 1044 - 821 - 2   21-08-2014, 06:06 AM
I am a Director[MICROHD720p][Español.AC3][Comedia][2012]

İmage



Director: Javier Colon
Writer: Javier Colon
Stars: Carlos Rivera Marchand, Joa Tous, Marisé Alvarez


SINOPSIS Tras pasar cinco años en Los Ángeles, Carlos, el director, vuelve a Puerto Rico con la convicción de querer hacer su primera película. Su amiga Joa, la productora, decide apoyarlo. Pero la película debe ser como las de Hollywood, y para eso la película debe rodarse en inglés.

Esta comedia, que llega como inédita a nuestro país, cuenta con varios cameos interesantes como el del músico Millo Torres, el director Jacobo Morales o la actriz y cómica Lillian Hurst. Completan el reparto Marisé Álvarez, Efraín López Neris y Luis Gonzaga.


İmage

Código:
General
Unique ID : 239235944461212971727738948088178520297 (0xB3FB2ABB5860411B955C3F73E131B0E9)
Complete name : I.Am.A.Director.MICROHD.720p.AC3.SPANiSH.HDTV.2012.[TRCKHD].mkv
Format : Matroska
Format version : Version 4 / Version 2
File size : 1.95 GiB
Duration : 1h 24mn
Overall bit rate : 3 304 Kbps
Movie name : I.Am.A.Director.MICROHD.720p.AC3.SPANiSH.HDTV.2012.[TRCKHD]
Encoded date : UTC 2014-08-17 15:49:06
Writing application : mkvmerge v6.3.0 ('You can't stop me!') built on Jun 28 2013 20:09:41
Writing library : libebml v1.3.0 + libmatroska v1.4.0

Video
ID : 1
Format : AVC
Format/Info : Advanced Video Codec
Format profile : [email protected]
Format settings, CABAC : Yes
Format settings, ReFrames : 3 frames
Codec ID : V_MPEG4/ISO/AVC
Duration : 1h 24mn
Bit rate : 2 855 Kbps
Width : 1 280 pixels
Height : 720 pixels
Display aspect ratio : 16:9
Frame rate : 25.000 fps
Color space : YUV
Chroma subsampling : 4:2:0
Bit depth : 8 bits
Scan type : Progressive
Bits/(Pixel*Frame) : 0.124
Stream size : 1.68 GiB (86%)
Title : I.Am.A.Director.MICROHD.720p.AC3.SPANiSH.HDTV.2012
Writing library : x264 core 130 r2273 b3065e6
Encoding settings : cabac=1 / ref=4 / deblock=1:0:0 / analyse=0x3:0x113 / me=hex / subme=9 / psy=1 / psy_rd=1,00:0,15 / mixed_ref=1 / me_range=16 / chroma_me=1 / trellis=2 / 8x8dct=1 / cqm=0 / deadzone=21,11 / fast_pskip=1 / chroma_qp_offset=-3 / threads=12 / lookahead_threads=1 / sliced_threads=0 / nr=0 / decimate=1 / interlaced=0 / bluray_compat=0 / constrained_intra=0 / bframes=4 / b_pyramid=1 / b_adapt=2 / b_bias=0 / direct=1 / weightb=1 / open_gop=0 / weightp=1 / keyint=250 / keyint_min=25 / scenecut=40 / intra_refresh=0 / rc_lookahead=40 / rc=crf / mbtree=1 / crf=17,0 / qcomp=0,60 / qpmin=0 / qpmax=69 / qpstep=4 / ip_ratio=1,40 / aq=1:1,00
Language : English
Default : Yes
Forced : No
Color primaries : BT.709-5, BT.1361, IEC 61966-2-4, SMPTE RP177
Transfer characteristics : BT.709-5, BT.1361
Matrix coefficients : BT.709-5, BT.1361, IEC 61966-2-4 709, SMPTE RP177

Audio
ID : 2
Format : AC-3
Format/Info : Audio Coding 3
Mode extension : CM (complete main)
Codec ID : A_AC3
Duration : 1h 24mn
Bit rate mode : Constant
Bit rate : 384 Kbps
Channel(s) : 2 channels
Channel positions : Front: L R
Sampling rate : 48.0 KHz
Bit depth : 16 bits
Compression mode : Lossy
Stream size : 232 MiB (12%)
Title : AC3 Español
Language : Spanish
Default : Yes
Forced : No


İmage



İmage



İmage
İmage



Código:
http://ul.to/tzvjts93
http://ul.to/drngleu3
http://ul.to/tm8csq01

http://www.uploadable.ch/file/2A6A7axkuTtt/Director.720p.part1.rar
http://www.uploadable.ch/file/k3JFdWkMzNQc/Director.720p.part2.rar
http://www.uploadable.ch/file/EKMnj6EpfvQS/Director.720p.part3.rar

https://www.oboom.com/RMI6SXUR
https://www.oboom.com/ZZPJ2RJQ
https://www.oboom.com/Z00O4YTY


İmage
0


Salto de foro:


Usuarios navegando en este tema: 1 invitado(s)