Calificación:
  • 0 voto(s) - 0 Media
  • 1
  • 2
  • 3
  • 4
  • 5
Hasta La Vista[MICROHD720p][Español][Comedia][2011]
Novel
Nivel: 28 [NivelNivelNivelNivel]
Rango : 8%
RangoRango
Actividad : 5%
ActividadActividad
Experiencia : 50 %
ExperienciaExperiencia
gianpoker OFF Escritor Friki **

  • 1,044

  • 821

  • 2







Respuesta: Hasta La Vista[MICROHD720p][Español][Comedia][2011] 1044 - 821 - 2   15-08-2014, 09:50 AM
Hasta La Vista[MICROHD720p][Español][Comedia][2011]

İmage



Título original: Hasta la Vista
Año: 2011
Duración: 109 min.
País: Bélgica
Director: Geoffrey Enthoven
Guión: Pierre De Clercq
Música: Meuris
Fotografía: Gerd Schelfhout
Reparto: Robrecht Vanden Thoren, Gilles De Schrijver, Tom Audenaert, Isabelle de Hertogh, Kimke Desart, Johan Heldenbergh, Karlijn Sileghem, Katelijne Verbeke, Karel Vingerhoets, Marilou Mermans, Itziar Luengo
Productora: Fobic Films
Género: Comedia. Drama | Discapacidad. Road Movie

SINOPSIS:

Tres veinteañeros que aman el vino y las mujeres, pero que nunca han disfrutado de la compañía íntima de una mujer, con el pretexto de hacer un itinerario enológico, vienen a España con la esperanza de perder su virginidad. Nada los detendrá, ni siquiera sus respectivas discapacidades: uno de ellos es ciego, otro está postrado en una silla de ruedas y el tercero es completamente paralítico




İmage

Código:
General
Unique ID : 246312070042292870830960785539895722894 (0xB94DFAA8A59412FC81ABF2EE28C9038E)
Complete name : Hasta.La.Vista.MICROHD.720p.AC3.SPANiSH.HDTV.2011.[TRCKHD].mkv
Format : Matroska
Format version : Version 4 / Version 2
File size : 2.21 GiB
Duration : 1h 48mn
Overall bit rate : 2 903 Kbps
Movie name : Hasta.La.Vista.MICROHD.720p.AC3.SPANiSH.HDTV.2011
Encoded date : UTC 2014-08-12 11:57:16
Writing application : mkvmerge v6.3.0 ('You can't stop me!') built on Jun 28 2013 20:09:41
Writing library : libebml v1.3.0 + libmatroska v1.4.0
TITLE : Hasta la vista (HD)_fixed

Video
ID : 1
Format : AVC
Format/Info : Advanced Video Codec
Format profile : [email protected]
Format settings, CABAC : Yes
Format settings, ReFrames : 3 frames
Codec ID : V_MPEG4/ISO/AVC
Duration : 1h 48mn
Bit rate : 2 462 Kbps
Width : 1 280 pixels
Height : 536 pixels
Display aspect ratio : 2.40:1
Frame rate : 25.000 fps
Color space : YUV
Chroma subsampling : 4:2:0
Bit depth : 8 bits
Scan type : Progressive
Bits/(Pixel*Frame) : 0.144
Stream size : 1.87 GiB (85%)
Title : Hasta.La.Vista.MICROHD.720p.AC3.SPANiSH.HDTV.2011.[TRCKHD]
Writing library : x264 core 130 r2273 b3065e6
Encoding settings : cabac=1 / ref=4 / deblock=1:-1:-1 / analyse=0x3:0x113 / me=hex / subme=9 / psy=1 / psy_rd=1,00:0,15 / mixed_ref=1 / me_range=16 / chroma_me=1 / trellis=2 / 8x8dct=1 / cqm=0 / deadzone=21,11 / fast_pskip=1 / chroma_qp_offset=-3 / threads=12 / lookahead_threads=1 / sliced_threads=0 / nr=0 / decimate=1 / interlaced=0 / bluray_compat=0 / constrained_intra=0 / bframes=4 / b_pyramid=1 / b_adapt=2 / b_bias=0 / direct=1 / weightb=1 / open_gop=0 / weightp=1 / keyint=250 / keyint_min=25 / scenecut=40 / intra_refresh=0 / rc_lookahead=40 / rc=crf / mbtree=1 / crf=17,0 / qcomp=0,60 / qpmin=0 / qpmax=69 / qpstep=4 / ip_ratio=1,40 / aq=1:1,00
Language : English
Default : Yes
Forced : No
Color primaries : BT.709-5, BT.1361, IEC 61966-2-4, SMPTE RP177
Transfer characteristics : BT.709-5, BT.1361
Matrix coefficients : BT.709-5, BT.1361, IEC 61966-2-4 709, SMPTE RP177

Audio
ID : 2
Format : AC-3
Format/Info : Audio Coding 3
Mode extension : CM (complete main)
Codec ID : A_AC3
Duration : 1h 48mn
Bit rate mode : Constant
Bit rate : 384 Kbps
Channel(s) : 6 channels
Channel positions : Front: L C R, Side: L R, LFE
Sampling rate : 48.0 KHz
Bit depth : 16 bits
Compression mode : Lossy
Stream size : 299 MiB (13%)
Title : AC3 Castellano
Language : Spanish
Default : Yes
Forced : No


İmage



İmage



İmage
İmage



Código:
http://ul.to/w3caf7jl
http://ul.to/kuh8cb9w
http://ul.to/czoteccp

http://www.uploadable.ch/file/skAzYtmmykJk/Hasta.La.Vista.m720p.part1.rar
http://www.uploadable.ch/file/dbgZxHbDqYxX/Hasta.La.Vista.m720p.part2.rar
http://www.uploadable.ch/file/Uj724hpw5qGK/Hasta.La.Vista.m720p.part3.rar

https://www.oboom.com/ZI6RDLB9
https://www.oboom.com/I0CZ6TNW
https://www.oboom.com/I1XDF2JD


İmage
0


Salto de foro:


Usuarios navegando en este tema: 1 invitado(s)