Calificación:
  • 0 voto(s) - 0 Media
  • 1
  • 2
  • 3
  • 4
  • 5
Exodus: Dioses y reyes[TS-Screener][Latino][Drama][2014]
Novel
Nivel: 28 [NivelNivelNivelNivel]
Rango : 8%
RangoRango
Actividad : 5%
ActividadActividad
Experiencia : 50 %
ExperienciaExperiencia
gianpoker OFF Escritor Friki **
1

  • 1,044

  • 821

  • 2







Respuesta: Exodus: Dioses y reyes[TS-Screener][Latino][Drama][2014] 1044 - 821 - 2   12-12-2014, 04:21 PM
Exodus: Dioses y reyes[TS-Screener][Latino][Drama][2014]

İmage



Título original: Exodus: Gods and Kings
Año: 2014
Duración: 151 min.
País: Estados Unidos
Director: Ridley Scott
Guión: Steve Zaillian (Historia: Adam Cooper, Bill Collage)
Música: Alberto Iglesias
Fotografía: Dariusz Wolski
Reparto: Christian Bale, Joel Edgerton, Aaron Paul, Sigourney Weaver, Ben Kingsley, Emun Elliott, John Turturro, María Valverde, Anton Alexander, Indira Varma, Ben Mendelsohn, Golshifteh Farahani, Hiam Abbass, Kevork Malikyan, Andrew Tarbet, Aaron Neil, Anna Savva, Barrie Martin, Gerard Monaco, Ghassan Massoud
Productora: Coproducción Estados Unidos-Reino Unido; Scott Free Productions / 20th Century Fox
Género: Aventuras. Drama | Antiguo Egipto. Biblia. Cine épico. 3-D

Sinopsis:

Narra la historia de Moisés (Christian Bale), un hombre cuyo coraje desafió a un imperio cuando se rebela contra el todopoderoso faraón Ramsés (Joel Edgerton), liberando a 600.000 esclavos en una épica huida a través de Egipto, llena de peligros y mortíferas plagas, en busca de la Tierra Prometida.


İmage

Código:
General
Complete name                            : EGAKingstsltn.avi
Format                                   : AVI
Format/Info                              : Audio Video Interleave
Format profile                           : OpenDML
File size                                : 1.83 GiB
Duration                                 : 2h 19mn
Overall bit rate                         : 1 875 Kbps
Writing application                      : Lavf53.32.100
Original source form/Name                : Exodus.Gods.and.Kings.LATiN0

Video
ID                                       : 0
Format                                   : MPEG-4 Visual
Format profile                           : Advanced Simple@L5
Format settings, BVOP                    : 2
Format settings, QPel                    : No
Format settings, GMC                     : No warppoints
Format settings, Matrix                  : Default (H.263)
Muxing mode                              : Packed bitstream
Codec ID                                 : XVID
Codec ID/Hint                            : XviD
Duration                                 : 2h 19mn
Bit rate                                 : 1 733 Kbps
Width                                    : 720 pixels
Height                                   : 346 pixels
Display aspect ratio                     : 2.081
Frame rate                               : 23.976 fps
Color space                              : YUV
Chroma subsampling                       : 4:2:0
Bit depth                                : 8 bits
Scan type                                : Progressive
Compression mode                         : Lossy
Bits/(Pixel*Frame)                       : 0.290
Stream size                              : 1.69 GiB (92%)
Writing library                          : XviD 64

Audio
ID                                       : 1
Format                                   : MPEG Audio
Format version                           : Version 1
Format profile                           : Layer 3
Mode                                     : Joint stereo
Mode extension                           : MS Stereo
Codec ID                                 : 55
Codec ID/Hint                            : MP3
Duration                                 : 2h 19mn
Bit rate mode                            : Constant
Bit rate                                 : 128 Kbps
Channel(s)                               : 2 channels
Sampling rate                            : 48.0 KHz
Compression mode                         : Lossy
Stream size                              : 128 MiB (7%)
Alignment                                : Aligned on interleaves
Interleave, duration                     : 24 ms (0.58 video frame)
Writing library                          : LAME3.99.5UUUUUUªfI


İmage



İmage




İmage


Código:
http://streamin.to/qov8crstu2yn

İmage
İmage


Código:
http://ul.to/xp64aq7l
http://ul.to/ok931ukw
http://ul.to/kdn3dfwu
https://www.oboom.com/QTBJXKFR/EGAKingstsltn.part3.rar
https://www.oboom.com/TPG7ATFQ/EGAKingstsltn.part2.rar
https://www.oboom.com/4TA5MMUR/EGAKingstsltn.part1.rar
http://www.cloudzilla.to/share/file/PNDUITMX44ZTBGPHGJ6FV1WNQ/
http://www.cloudzilla.to/share/file/2G5XEFMO4DE6WNWFILHDOLCQH/
http://www.cloudzilla.to/share/file/RHD5M2TXFC5KJHMAVXC4XFMMI/
http://mediafree.co/ccjzzh17v4e7/EGAKingstsltn.part1.rar.html
http://mediafree.co/gzvlj8fa3nyh/EGAKingstsltn.part2.rar.html
http://mediafree.co/x713jb8w38oq/EGAKingstsltn.part3.rar.html
http://www.uploadable.ch/file/HdytXakSe6st/EGAKingstsltn.part1.rar
http://www.uploadable.ch/file/5hUmpKMRQRHx/EGAKingstsltn.part2.rar
http://www.uploadable.ch/file/7pD2mbZejBcs/EGAKingstsltn.part3.rar



İmage
IGNORAR ESTO:
ExtraTags:
exodus dioses y reyes
exodus dioses y reyes (2014) online
exodus dioses y reyes estreno
exodus dioses y reyes (2014)
exodus dioses y reyes online
exodus dioses y reyes pelicula completa
exodus dioses y reyes imdb
exodus dioses y reyes descargar
exodus dioses y reyes actores
exodus dioses y reyes cast
exodus dioses y reyes completa
exodus dioses y reyes descargar
exodus dioses y reyes dvdrip
exodus dioses y reyes estreno
exodus dioses y reyes estreno españa
exodus dioses y reyes estreno mexico
exodus dioses y reyes españa
exodus dioses y reyes español latino
exodus dioses y reyes estreno en argentina
exodus dioses y reyes mega
0
İmage


Salto de foro:


Usuarios navegando en este tema: 1 invitado(s)