Calificación:
  • 0 voto(s) - 0 Media
  • 1
  • 2
  • 3
  • 4
  • 5
En Apatía: Secuelas del odio[MicroHD1080p][Español][2014]
Novel
Nivel: 28 [NivelNivelNivelNivel]
Rango : 8%
RangoRango
Actividad : 5%
ActividadActividad
Experiencia : 50 %
ExperienciaExperiencia
gianpoker OFF Escritor Friki **
1

  • 1,044

  • 821

  • 2







Respuesta: En Apatía: Secuelas del odio[MicroHD1080p][Español][2014] 1044 - 821 - 2   16-08-2014, 07:14 AM
En Apatía: Secuelas del odio[MicroHD1080p][Español][2014]

İmage



Título: En Apatía. Secuelas del Odio
Título original: En Apatía. Secuelas del Odio
País: España
Estreno en USA:
Estreno en España: 09/05/2014
Productora: INTMED FILMS
Director: Joel Arellanes Duran
Guión: Joel Arellanes Duran
Reparto: Álvaro Díaz Rodríguez, Christian Casas, Lucía Ramos, Carme Juan, Bárbara de Lema, Leonor Martín, Antonio Espigares, Nacho López, Marcos Alamillo, Concha Calderón, Raquel Sierra, Martín Martínez, David Mora, Andrea Duro, Joel Bosqued
Drama | 82 min.

Sinopsis:

Tras una agnóstica educación, una vida de excesos y un legado de odio, se esconde Marcos un joven indiferente a la vida, tras enfrentarse a la muerte, todo cambiará, alguien toma su lugar ante la ley y paga por su culpa, lo que trastornará su apatía.

Tamaño: 3.22 GB
Formato: Matroska
Video: AVC
Resolucion: 1920 x 1080
Format profile: [email protected]
Format settings, ReFrames: 4 frames
Audio 1: AC3 5.1 384 Kbps Castellano
Subs: No


İmage

Código:
General
Unique ID : 241158640332056595575520824303177078326 (0xB56D76F50705DC2E8430722F3CBE9636)
Complete name : D:\ApatiaM1080.carl.mkv
Format : Matroska
Format version : Version 2
File size : 3.22 GiB
Duration : 1h 22mn
Overall bit rate : 5 613 Kbps
Encoded date : UTC 2014-08-14 11:26:19
Writing application : mkvmerge v5.3.0 ('I could have danced') built on Feb 9 2012 10:38:07
Writing library : libebml v1.2.3 + libmatroska v1.3.0

Video
ID : 1
Format : AVC
Format/Info : Advanced Video Codec
Format profile : [email protected]
Format settings, CABAC : Yes
Format settings, ReFrames : 4 frames
Codec ID : V_MPEG4/ISO/AVC
Duration : 1h 22mn
Bit rate : 5 118 Kbps
Width : 1 920 pixels
Height : 1 080 pixels
Display aspect ratio : 16:9
Frame rate mode : Constant
Frame rate : 24.000 fps
Color space : YUV
Chroma subsampling : 4:2:0
Bit depth : 8 bits
Scan type : Progressive
Bits/(Pixel*Frame) : 0.103
Stream size : 2.93 GiB (91%)
Language : Spanish
Default : Yes
Forced : No
Color primaries : BT.709
Transfer characteristics : BT.709
Matrix coefficients : BT.709

Audio
ID : 2
Format : AC-3
Format/Info : Audio Coding 3
Mode extension : CM (complete main)
Format settings, Endianness : Big
Codec ID : A_AC3
Duration : 1h 22mn
Bit rate mode : Constant
Bit rate : 384 Kbps
Channel(s) : 6 channels
Channel positions : Front: L C R, Side: L R, LFE
Sampling rate : 48.0 KHz
Bit depth : 16 bits
Compression mode : Lossy
Stream size : 225 MiB (7%)
Language : Spanish
Default : Yes
Forced : No


İmage



İmage



İmage
İmage


Código:
http://ul.to/mwdk8zn3
http://ul.to/7kkoew5t
http://ul.to/4vp3ewce

http://www.uploadable.ch/file/CWduB9XbY89h/ApatiaM1080. By gianpoker.part1.rar
http://www.uploadable.ch/file/KyRJgkvtFEqh/ApatiaM1080. By gianpoker.part2.rar
http://www.uploadable.ch/file/EgfKafQxmeFC/ApatiaM1080. By gianpoker.part3.rar

https://www.oboom.com/AOCQZKIN
https://www.oboom.com/WHD2DAAS
https://www.oboom.com/QQJAWO8J



İmage
0


Salto de foro:


Usuarios navegando en este tema: 1 invitado(s)