Calificación:
  • 0 voto(s) - 0 Media
  • 1
  • 2
  • 3
  • 4
  • 5
El Consejero[BDRIPm1080p][Dual][Thriller][2013]
Novel
Nivel: 28 [NivelNivelNivelNivel]
Rango : 8%
RangoRango
Actividad : 5%
ActividadActividad
Experiencia : 50 %
ExperienciaExperiencia
gianpoker OFF Escritor Friki **
1

  • 1,044

  • 821

  • 2







Respuesta: El Consejero[BDRIPm1080p][Dual][Thriller][2013] 1044 - 821 - 2   13-12-2014, 01:24 PM
El Consejero[BDRIPm1080p][Dual][Thriller][2013]

İmage



Título original: The Counselor
Año: 2013
Duración: 117 min.
País: Estados Unidos
Director: Ridley Scott
Guión: Cormac McCarthy
Música: Daniel Pemberton
Fotografía: Dariusz Wolski
Reparto: Michael Fassbender, Penélope Cruz, Cameron Diaz, Javier Bardem, Brad Pitt, Bruno Ganz, Rosie Perez, Sam Spruell, Toby Kebbell, Édgar Ramírez, Rubén Blades, Natalie Dormer, Goran Visnjic, Fernando Cayo, Dean Norris, John Leguizamo, Velibor Topic, Giannina Facio
Productora: Fox 2000 Pictures / Scott Free Productions / Nick Wechsler Productions / Chockstone Pictures
Género: Thriller | Crimen. Drogas. Neo-noir

Sinopsis:

Un respetado abogado (Fassbender) del sudoeste de Estados Unidos decide participar por primera vez en una operación de tráfico de drogas en la frontera mexicana con el fin de conseguir diner para casarse con su novia, la dulce Laura (Penélope Cruz). Sus contactos con los cárteles son Reiner (Javier Bardem), un capo de la droga muy enamorado de su chica, la sexy y ambiciosa Malkina (Cameron Diaz), y Westray (Brad Pitt) y un intermediario amigo suyo. Primer guión cinematográfico del novelista Cormac McCarthy ("La carretera", "No es país para viejos").


İmage

Código:
General
Unique ID                                : 195400324669308694559241345556017534489 (0x9300BBCFFC5B4034A728A98E2BA75619)
Complete name                            : ElConsejeroM1080. by gianpoker.mkv
Format                                   : Matroska
Format version                           : Version 4 / Version 2
File size                                : 4.72 GiB
Duration                                 : 1h 57mn
Overall bit rate                         : 5 756 Kbps
Movie name                               : El Consejero
Encoded date                             : UTC 2014-01-30 16:15:16
Writing application                      : mkvmerge v6.7.0 ('Back to the Ground') 64bit built on Jan  8 2014 15:10:52
Writing library                          : libebml v1.3.0 + libmatroska v1.4.1

Video
ID                                       : 1
Format                                   : AVC
Format/Info                              : Advanced Video Codec
Format profile                           : [email protected]
Format settings, CABAC                   : Yes
Format settings, ReFrames                : 4 frames
Codec ID                                 : V_MPEG4/ISO/AVC
Duration                                 : 1h 57mn
Bit rate                                 : 4 000 Kbps
Width                                    : 1 920 pixels
Height                                   : 800 pixels
Display aspect ratio                     : 2.40:1
Frame rate mode                          : Constant
Frame rate                               : 23.976 fps
Color space                              : YUV
Chroma subsampling                       : 4:2:0
Bit depth                                : 8 bits
Scan type                                : Progressive
Bits/(Pixel*Frame)                       : 0.109
Stream size                              : 3.16 GiB (67%)
Title                                    : El Consejero
Writing library                          : x264 core 140 r2377kMod 1ca7bb9
Encoding settings                        : cabac=1 / ref=4 / deblock=1:-1:-1 / analyse=0x3:0x113 / me=hex / subme=9 / psy=1 / fade_compensate=0.00 / psy_rd=1.00:0.00 / mixed_ref=1 / me_range=16 / chroma_me=1 / trellis=1 / 8x8dct=1 / cqm=0 / deadzone=21,11 / fast_pskip=1 / chroma_qp_offset=-2 / threads=11 / lookahead_threads=1 / sliced_threads=0 / nr=0 / decimate=1 / interlaced=0 / bluray_compat=0 / constrained_intra=0 / fgo=0 / bframes=1 / b_pyramid=0 / b_adapt=1 / b_bias=0 / direct=3 / weightb=1 / open_gop=0 / weightp=2 / keyint=250 / keyint_min=25 / scenecut=40 / intra_refresh=0 / rc_lookahead=50 / rc=abr / mbtree=1 / bitrate=4000 / ratetol=1.0 / qcomp=0.60 / qpmin=0 / qpmax=69 / qpstep=4 / ip_ratio=1.40 / aq=1:1.00
Language                                 : English
Default                                  : Yes
Forced                                   : No

Audio #1
ID                                       : 2
Format                                   : DTS
Format/Info                              : Digital Theater Systems
Mode                                     : 16
Format settings, Endianness              : Big
Codec ID                                 : A_DTS
Duration                                 : 1h 57mn
Bit rate mode                            : Constant
Bit rate                                 : 768 Kbps
Channel(s)                               : 6 channels
Channel positions                        : Front: L C R, Side: L R, LFE
Sampling rate                            : 48.0 KHz
Bit depth                                : 24 bits
Compression mode                         : Lossy
Delay relative to video                  : 9ms
Stream size                              : 645 MiB (13%)
Title                                    : DTS
Language                                 : Spanish
Default                                  : Yes
Forced                                   : Yes

Audio #2
ID                                       : 3
Format                                   : AC-3
Format/Info                              : Audio Coding 3
Mode extension                           : CM (complete main)
Format settings, Endianness              : Big
Codec ID                                 : A_AC3
Duration                                 : 1h 57mn
Bit rate mode                            : Constant
Bit rate                                 : 640 Kbps
Channel(s)                               : 6 channels
Channel positions                        : Front: L C R, Side: L R, LFE
Sampling rate                            : 48.0 KHz
Bit depth                                : 16 bits
Compression mode                         : Lossy
Stream size                              : 537 MiB (11%)
Title                                    : AC3
Language                                 : Spanish
Default                                  : No
Forced                                   : No

Audio #3
ID                                       : 4
Format                                   : AC-3
Format/Info                              : Audio Coding 3
Mode extension                           : CM (complete main)
Format settings, Endianness              : Big
Codec ID                                 : A_AC3
Duration                                 : 1h 57mn
Bit rate mode                            : Constant
Bit rate                                 : 384 Kbps
Channel(s)                               : 6 channels
Channel positions                        : Front: L C R, Side: L R, LFE
Sampling rate                            : 48.0 KHz
Bit depth                                : 16 bits
Compression mode                         : Lossy
Stream size                              : 322 MiB (7%)
Title                                    : AC3
Language                                 : English
Default                                  : No
Forced                                   : No

Text #1
ID                                       : 5
Format                                   : VobSub
Muxing mode                              : zlib
Codec ID                                 : S_VOBSUB
Codec ID/Info                            : The same subtitle format used on DVDs
Title                                    : Sub
Language                                 : English
Default                                  : No
Forced                                   : No

Text #2
ID                                       : 6
Format                                   : VobSub
Muxing mode                              : zlib
Codec ID                                 : S_VOBSUB
Codec ID/Info                            : The same subtitle format used on DVDs
Title                                    : Sub
Language                                 : Spanish
Default                                  : No
Forced                                   : No

Text #3
ID                                       : 7
Format                                   : UTF-8
Codec ID                                 : S_TEXT/UTF8
Codec ID/Info                            : UTF-8 Plain Text
Title                                    : Sub
Language                                 : English
Default                                  : No
Forced                                   : No

Text #4
ID                                       : 8
Format                                   : UTF-8
Codec ID                                 : S_TEXT/UTF8
Codec ID/Info                            : UTF-8 Plain Text
Title                                    : Sub
Language                                 : Spanish
Default                                  : No
Forced                                   : No

Text #5
ID                                       : 9
Format                                   : UTF-8
Codec ID                                 : S_TEXT/UTF8
Codec ID/Info                            : UTF-8 Plain Text
Title                                    : sub.forz.es
Language                                 : Spanish
Default                                  : Yes
Forced                                   : Yes


İmage

İmage


İmage
İmage


Código:
http://ul.to/wqf28whh
http://ul.to/m8713ufb
http://ul.to/oe9i2lr7
http://ul.to/cpzylgqy
http://ul.to/n0eqi0l8
http://ul.to/dz6bavqv
https://www.oboom.com/4JYHXBZG/concjM1080.part6.rar
https://www.oboom.com/963G912L/concjM1080.part5.rar
https://www.oboom.com/PIQOZ5KV/concjM1080.part4.rar
https://www.oboom.com/FWPUWOUY/concjM1080.part3.rar
https://www.oboom.com/BNM9ITRJ/concjM1080.part2.rar
https://www.oboom.com/WYD8WX13/concjM1080.part1.rar
http://www.cloudzilla.to/share/file/WDL0YUEU3C41A0W30MJKPVNX1/
http://www.cloudzilla.to/share/file/HYLPLAUZBTJX0OUOVUA2V435Y/
http://www.cloudzilla.to/share/file/XOLM2LCGVP6NWIT3ELJHDFJRG/
http://www.cloudzilla.to/share/file/RZO5AKXKKQRY4FNGBSZZUBPXA/
http://www.cloudzilla.to/share/file/K3NO1HBP0NODWLVAV0KOT3PM1/
http://www.cloudzilla.to/share/file/K1JFYRSP2CIQTOOHUXTNBTL41/
http://mediafree.co/hc8uuku0g9wv/concjM1080.part1.rar.html
http://mediafree.co/obh5diyht37w/concjM1080.part2.rar.html
http://mediafree.co/0lezh32m41yx/concjM1080.part3.rar.html
http://mediafree.co/tb413j8rbpg5/concjM1080.part4.rar.html
http://mediafree.co/9w65ave4ic4p/concjM1080.part5.rar.html
http://mediafree.co/afb7o1fbhnie/concjM1080.part6.rar.html



İmage
IGNORAR ESTO:
ExtraTags:
el consejero
el consejero online
el consejero pelicula completa online
el consejero trailer
el consejero critica
el consejero filmaffinity
el consejero argumento
el consejero audio latino
el consejero analisis
el consejero brad pitt
el mensajero br screener
el consejero hd
el consejero hdrip
el consejero hd online
el consejero hdrip castellano
el consejero hd mega
el consejero 720p
el consejero 1080p
el consejero 1080p mega
0
İmage


Salto de foro:


Usuarios navegando en este tema: 1 invitado(s)