Calificación:
  • 0 voto(s) - 0 Media
  • 1
  • 2
  • 3
  • 4
  • 5
Diamantes Negros[MICROHD720p][Español.AC3][Drama][2013]
Novel
Nivel: 28 [NivelNivelNivelNivel]
Rango : 8%
RangoRango
Actividad : 5%
ActividadActividad
Experiencia : 50 %
ExperienciaExperiencia
gianpoker OFF Escritor Friki **

  • 1,044

  • 821

  • 2







Respuesta: Diamantes Negros[MICROHD720p][Español.AC3][Drama][2013] 1044 - 821 - 2   21-08-2014, 06:04 AM
Diamantes Negros[MICROHD720p][Español.AC3][Drama][2013]

İmage



Título original: Diamantes negros
Año: 2013
Duración: 100 min.
País: España
Director: Miguel Alcantud
Guión: Miguel Alcantud
Música :Juan Antonio Simarro
Fotografía: Alberto D. Centeno
Reparto: Setigui Diallo, Hamidou Samake, Guillermo Toledo, Carlo D’Ursi, Carlos Bardem
Productora: Coproducción España-Portugal; Fado Filmes / Potenza Producciones
Género: Drama | Drama social. África. Fútbol


SINOPSIS:

Tras ser captados en Mali por un ojeador de fútbol, los jóvenes Amadou y Moussa abandonan su país, escapando de la pobreza, y llegan a Madrid persiguiendo el sueño de triunfar como futbolistas. La gira que hacen por España, Portugal y el norte de Europa les mostrará las sombras del deporte rey.




İmage

Código:
General
Unique ID : 253102852712680485187538533790909817470 (0xBE69D6181441C939B6D837BD1DE5627E)
Complete name : Diamantes.Negros.MICROHD.720p.AC3.SPANiSH.HDTV.2013.[TRCKHD].mkv
Format : Matroska
Format version : Version 4 / Version 2
File size : 3.07 GiB
Duration : 1h 33mn
Overall bit rate : 4 672 Kbps
Movie name : Diamantes.Negros.MICROHD.720p.AC3.SPANiSH.HDTV.2013.[TRCKHD]
Encoded date : UTC 2014-08-17 15:44:54
Writing application : mkvmerge v6.3.0 ('You can't stop me!') built on Jun 28 2013 20:09:41
Writing library : libebml v1.3.0 + libmatroska v1.4.0

Video
ID : 1
Format : AVC
Format/Info : Advanced Video Codec
Format profile : [email protected]
Format settings, CABAC : Yes
Format settings, ReFrames : 3 frames
Codec ID : V_MPEG4/ISO/AVC
Duration : 1h 33mn
Bit rate : 4 195 Kbps
Width : 1 280 pixels
Height : 692 pixels
Display aspect ratio : 1.850
Frame rate : 25.000 fps
Color space : YUV
Chroma subsampling : 4:2:0
Bit depth : 8 bits
Scan type : Progressive
Bits/(Pixel*Frame) : 0.189
Stream size : 2.75 GiB (90%)
Title : Diamantes.Negros.MICROHD.720p.AC3.SPANiSH.HDTV.2013
Writing library : x264 core 130 r2273 b3065e6
Encoding settings : cabac=1 / ref=4 / deblock=1:-1:-1 / analyse=0x3:0x113 / me=hex / subme=9 / psy=1 / psy_rd=1,00:0,15 / mixed_ref=1 / me_range=16 / chroma_me=1 / trellis=2 / 8x8dct=1 / cqm=0 / deadzone=21,11 / fast_pskip=1 / chroma_qp_offset=-3 / threads=12 / lookahead_threads=1 / sliced_threads=0 / nr=0 / decimate=1 / interlaced=0 / bluray_compat=0 / constrained_intra=0 / bframes=4 / b_pyramid=1 / b_adapt=2 / b_bias=0 / direct=1 / weightb=1 / open_gop=0 / weightp=1 / keyint=250 / keyint_min=25 / scenecut=40 / intra_refresh=0 / rc_lookahead=40 / rc=crf / mbtree=1 / crf=17,0 / qcomp=0,60 / qpmin=0 / qpmax=69 / qpstep=4 / ip_ratio=1,40 / aq=1:1,00
Language : English
Default : Yes
Forced : No
Color primaries : BT.709-5, BT.1361, IEC 61966-2-4, SMPTE RP177
Transfer characteristics : BT.709-5, BT.1361
Matrix coefficients : BT.709-5, BT.1361, IEC 61966-2-4 709, SMPTE RP177

Audio
ID : 2
Format : AC-3
Format/Info : Audio Coding 3
Mode extension : CM (complete main)
Codec ID : A_AC3
Duration : 1h 33mn
Bit rate mode : Constant
Bit rate : 384 Kbps
Channel(s) : 2 channels
Channel positions : Front: L R
Sampling rate : 48.0 KHz
Bit depth : 16 bits
Compression mode : Lossy
Stream size : 258 MiB (8%)
Title : AC3 Castellano
Language : Spanish
Default : Yes
Forced : No





İmage
İmage



Código:
http://ul.to/rul90zop
http://ul.to/zo991x5b
http://ul.to/qghjfckl

http://www.uploadable.ch/file/R3mjtd3GEA96/Diamantes.m720p.part1.rar
http://www.uploadable.ch/file/mXegx9ugyxa8/Diamantes.m720p.part2.rar
http://www.uploadable.ch/file/bChKGWefcnqE/Diamantes.m720p.part3.rar

https://www.oboom.com/HR8E8V94
https://www.oboom.com/GXUFUDJP
https://www.oboom.com/5ZBRW0HE



İmage
0


Salto de foro:


Usuarios navegando en este tema: 1 invitado(s)