Calificación:
  • 0 voto(s) - 0 Media
  • 1
  • 2
  • 3
  • 4
  • 5
Capitán América: El soldado de invierno[BRip1080p][DTS-DUAL]
Novel
Nivel: 28 [NivelNivelNivelNivel]
Rango : 8%
RangoRango
Actividad : 5%
ActividadActividad
Experiencia : 50 %
ExperienciaExperiencia
gianpoker OFF Escritor Friki **
1

  • 1,044

  • 821

  • 2







Respuesta: Capitán América: El soldado de invierno[BRip1080p][DTS-DUAL] 1044 - 821 - 2   02-08-2014, 12:00 PM
Capitán América: El soldado de invierno[BluRay1080p][DTS-AC3.DTS.DUAL]

İmage



Título: Capitán América: El soldado de invierno
Título original: Captain America: The Winter Soldier
País: USA
Productora: Paramount Pictures, Marvel Studios
Director: Joe y Anthony Russo
Guión: Christopher Markus, Stephen McFeely
Reparto: Chris Evans, Scarlett Johansson, Cobie Smulders, Samuel L. Jackson, Anthony Mackie, Robert Redford, Emily VanCamp, Hayley Atwell, Sebastian Stan, Stan Lee, Frank Grillo, Toby Jones, Georges St-Pierre, Callan Mulvey, Maximiliano Hernández
Calificación: No recomendada para menores de 12 años
Género: Acción. Thriller. Fantástico | Espionaje. Superhéroes. Cómic. Marvel Comics. Secuela. 3-D

Sinopsis:
Tras los devastadores acontecimientos acaecidos en Nueva York con Los Vengadores, "Capitán América. El Soldado de Invierno" de Marvel nos cuenta cómo Steve Rogers, alias el Capitán América, vive tranquilamente en Washington, D.C. intentando adaptarse al mundo moderno. Pero cuando atacan a un colega de S.H.I.E.L.D., Steve se ve envuelto en una trama de intrigas que amenaza con poner en peligro al mundo. El Capitán América une fuerzas con la Viuda Negra y lucha por sacar a la luz una conspiración cada vez mayor mientras hace frente a asesinos profesionales enviados para silenciarle. Cuando por fin se revela la magnitud de la malvada trama, el Capitán América y la Viuda Negra van a contar con la ayuda de un nuevo aliado, el Halcón. Pero deberán enfrentarse a un enemigo inesperado y extraordinario: el Soldado de Invierno.

Tamaño: 13.5 GB
Formato: Matroska
Video: AVC
Resolucion: 1920 x 800
Format profile: [email protected]
Format settings, ReFrames: 4 frames
Audio 1: DTS 5.1 755 Kbps Castellano
Audio 2: AC3 5.1 448 Kbps Castellano
Audio 3: DTS 5.1 1509 kbps Ingles
Subs: Español e Ingles + Forzados


İmage

Código:
C4p1t4nHD1080p  By gianpoker.mkv
Size: 14524045055 bytes (13.53 GiB), duration: 02:15:54, avg.bitrate: 14250 kb/s
Audio: dca, 48000 Hz, 6 channels, s16 (spa)
Audio: ac3, 48000 Hz, 6 channels, s16 (spa)
Audio: dca, 48000 Hz, 6 channels, s16 (eng)
Video: h264, yuv420p, 1920x800, 23.98 fps(r) (spa)
Subtitles: spa eng spa

Format : Matroska
Format version : Version 2
File size : 13.5 GiB
Duration : 2h 15mn
Overall bit rate : 14.2 Mbps
Encoded date : UTC 2014-08-01 07:22:15
Writing application : mkvmerge v5.3.0 ('I could have danced') built on Feb 9 2012 10:38:07
Writing library : libebml v1.2.3 + libmatroska v1.3.0

Video
ID : 1
Format : AVC
Format/Info : Advanced Video Codec
Format profile : [email protected]
Format settings, CABAC : Yes
Format settings, ReFrames : 4 frames
Codec ID : V_MPEG4/ISO/AVC
Duration : 2h 15mn
Bit rate : 11.3 Mbps
Width : 1 920 pixels
Height : 800 pixels
Display aspect ratio : 2.40:1
Frame rate mode : Constant
Frame rate : 23.976 fps
Color space : YUV
Chroma subsampling : 4:2:0
Bit depth : 8 bits
Scan type : Progressive
Bits/(Pixel*Frame) : 0.306
Stream size : 10.7 GiB (79%)
Writing library : x264 core 142 r2431+42 c69a006 tMod [[email protected] X86_64]
Encoding settings : cabac=1 / ref=2 / deblock=1:0:0 / analyse=0x3:0x133 / me=hex / subme=2 / psy=1 / fade_compensate=0.00 / psy_rd=1.00:0.00 / mixed_ref=1 / me_range=16 / chroma_me=1 / trellis=2 / 8x8dct=1 / cqm=0 / deadzone=21,11 / fast_pskip=0 / chroma_qp_offset=0 / threads=12 / lookahead_threads=6 / sliced_threads=0 / nr=0 / decimate=1 / interlaced=0 / bluray_compat=0 / constrained_intra=0 / fgo=0 / bframes=2 / b_pyramid=2 / b_adapt=2 / b_bias=0 / direct=1 / weightb=1 / open_gop=0 / weightp=2 / keyint=240 / keyint_min=23 / scenecut=40 / intra_refresh=0 / rc=crf / mbtree=0 / crf=18.2000 / qcomp=0.60 / qpmin=0:0:0 / qpmax=69:69:69 / qpstep=4 / ip_ratio=1.40 / pb_ratio=1.30 / aq=1:1.00 / aq-sensitivity=10.00 / aq-factor=1.00:1.00:1.00 / aq2=0 / aq3=0
Language : Spanish
Default : Yes
Forced : No

Audio #1
ID : 2
Format : DTS
Format/Info : Digital Theater Systems
Mode : 16
Format settings, Endianness : Big
Codec ID : A_DTS
Duration : 2h 15mn
Bit rate mode : Constant
Bit rate : 755 Kbps
Channel count : 6 channels
Channel positions : Front: L C R, Side: L R, LFE
Sampling rate : 48.0 KHz
Bit depth : 24 bits
Compression mode : Lossy
Stream size : 733 MiB (5%)
Language : Spanish
Default : Yes
Forced : Yes

Audio #2
ID : 3
Format : AC-3
Format/Info : Audio Coding 3
Mode extension : CM (complete main)
Format settings, Endianness : Big
Codec ID : A_AC3
Duration : 2h 15mn
Bit rate mode : Constant
Bit rate : 448 Kbps
Channel count : 6 channels
Channel positions : Front: L C R, Side: L R, LFE
Sampling rate : 48.0 KHz
Bit depth : 16 bits
Compression mode : Lossy
Stream size : 435 MiB (3%)
Language : Spanish
Default : No
Forced : No

Audio #3
ID : 4
Format : DTS
Format/Info : Digital Theater Systems
Mode : 16
Format settings, Endianness : Big
Codec ID : A_DTS
Duration : 2h 15mn
Bit rate mode : Constant
Bit rate : 1 509 Kbps
Channel count : 6 channels
Channel positions : Front: L C R, Side: L R, LFE
Sampling rate : 48.0 KHz
Bit depth : 24 bits
Compression mode : Lossy
Stream size : 1.43 GiB (11%)
Language : English
Default : No
Forced : No

Text #1
ID : 5
Format : PGS
Muxing mode : zlib
Codec ID : S_HDMV/PGS
Codec ID/Info : The same subtitle format used on BDs/HD-DVDs
Title : Forzados
Language : Spanish
Default : Yes
Forced : Yes

Text #2
ID : 6
Format : PGS
Muxing mode : zlib
Codec ID : S_HDMV/PGS
Codec ID/Info : The same subtitle format used on BDs/HD-DVDs
Language : English
Default : No
Forced : No

Text #3
ID : 7
Format : PGS
Muxing mode : zlib
Codec ID : S_HDMV/PGS
Codec ID/Info : The same subtitle format used on BDs/HD-DVDs
Language : Spanish
Default : No
Forced : No



İmage



İmage



İmage
İmage



İmage

Código:
http://ul.to/uke510zy
http://ul.to/sn76dvfi
http://ul.to/s62yywjb
http://ul.to/ru8dyd4z
http://ul.to/hxg8eyrg
http://ul.to/b9f6p6gl
http://ul.to/910s63e5


İmage

Código:
http://www.uploadable.ch/file/yfrwJaXqs9nD/xxC4p1t4n.dual.HD1080p.part6.rar
http://www.uploadable.ch/file/KkudWurqKpY9/xxC4p1t4n.dual.HD1080p.part5.rar
http://www.uploadable.ch/file/tdJkK4nETVQd/xxC4p1t4n.dual.HD1080p.part4.rar
http://www.uploadable.ch/file/483saFDNJG25/xxC4p1t4n.dual.HD1080p.part3.rar
http://www.uploadable.ch/file/8QhDG7b9tDkN/xxC4p1t4n.dual.HD1080p.part2.rar
http://www.uploadable.ch/file/4N9TfeQDRgyP/xxC4p1t4n.dual.HD1080p.part1.rar


İmage

Código:
http://xerver.co/dcdvv25q8ad1/xxC4p1t4n.dual.HD1080p.part6.rar
http://xerver.co/gz0e0ykifxtp/xxC4p1t4n.dual.HD1080p.part5.rar
http://xerver.co/0408c7gjf3h1/xxC4p1t4n.dual.HD1080p.part4.rar
http://xerver.co/yx180h6hyvm4/xxC4p1t4n.dual.HD1080p.part3.rar
http://xerver.co/iiatr8d3rc6b/xxC4p1t4n.dual.HD1080p.part2.rar
http://xerver.co/hdnxyod7beo8/xxC4p1t4n.dual.HD1080p.part1.rar



İmage
0


Salto de foro:


Usuarios navegando en este tema: 1 invitado(s)