Calificación:
  • 0 voto(s) - 0 Media
  • 1
  • 2
  • 3
  • 4
  • 5
Atrapada En La Oscuridad [HDrip.Xvid AC3 Esp][Thriller][2013]
Novel
Nivel: 6 [NivelNivelNivelNivel]
Rango : 8%
RangoRango
Actividad : 29%
ActividadActividad
Experiencia : 48 %
ExperienciaExperiencia
LuuK OFF Miembro **
1

  • 58

  • 58

  • 0







Respuesta: Atrapada En La Oscuridad [HDrip.Xvid AC3 Esp][Thriller][2013] 58 - 58 - 0   22-01-2014, 08:40 AM
İmage

Título original
Penthouse North
Año
2013
Duración
85 min.
País
Estados Unidos Estados Unidos
Director
Joseph Ruben
Guión
David Loughery
Música
Mark Mancina
Fotografía
Chris Seager
Reparto
Michelle Monaghan, Michael Keaton, Barry Sloane, Andrew W. Walker, Kaniehtiio Horn, Olivier Surprenant, Namukasa Basudde, Trevor Hayes, Jasmine Chan, Zhaida Uddin
Productora
Demarest Films / Lionsgate Productions
Género
Thriller | Discapacidad. Robos & Atracos
Web Oficial
http://www.atrapadaenlaoscuridad.com/
Sinopsis
La joven Sara Taylor (Michelle Monaghan), una antigua reportera gráfica que perdió la vista en Irak, se aparta de todo y se refugia en un ático de Nueva York. Sin embargo, su vida tranquila vuelve a sufrir una experiencia traumática cuando se ve obligada a participar en un macabro juego del gato y el ratón con dos hombres que no se detendrán ante nada hasta conseguir lo quieren: una fortuna en forma de diamantes robados ocultos en alguna parte del ático de Sara. (FILMAFFINITY)

İmage

Tamaño Total: 1,37 GB
Resolucion:720x384
Video:XVID
Idioma:Español(Sub forzados Integrados)
Fuente:mkv 1080

Código:
General
Complete name                            : D:\HDrip\Atrapada En La Oscuridad HDrip.Xvid AC3 Esp\Atrapada En La Oscuridad HDrip.Xvid AC3 Esp.avi
Format                                   : AVI
Format/Info                              : Audio Video Interleave
File size                                : 1.37 GiB
Duration                                 : 1h 25mn
Overall bit rate                         : 2 282 Kbps
Writing application                      : VirtualDubMod 1.5.4.1 (build 2178/release)
Writing library                          : VirtualDubMod build 2178/release

Video
ID                                       : 0
Format                                   : MPEG-4 Visual
Format profile                           : Advanced [email protected]
Format settings, BVOP                    : 2
Format settings, QPel                    : No
Format settings, GMC                     : No warppoints
Format settings, Matrix                  : Default (MPEG)
Codec ID                                 : XVID
Codec ID/Hint                            : XviD
Duration                                 : 1h 25mn
Bit rate                                 : 1 825 Kbps
Width                                    : 720 pixels
Height                                   : 384 pixels
Display aspect ratio                     : 1.85:1
Frame rate                               : 23.976 fps
Color space                              : YUV
Chroma subsampling                       : 4:2:0
Bit depth                                : 8 bits
Scan type                                : Progressive
Compression mode                         : Lossy
Bits/(Pixel*Frame)                       : 0.275
Stream size                              : 1.09 GiB (80%)
Writing library                          : XviD 64

Audio
ID                                       : 1
Format                                   : AC-3
Format/Info                              : Audio Coding 3
Mode extension                           : CM (complete main)
Format settings, Endianness              : Big
Codec ID                                 : 2000
Duration                                 : 1h 25mn
Bit rate mode                            : Constant
Bit rate                                 : 448 Kbps
Channel count                            : 6 channels
Channel positions                        : Front: L C R, Side: L R, LFE
Sampling rate                            : 48.0 KHz
Bit depth                                : 16 bits
Compression mode                         : Lossy
Stream size                              : 274 MiB (20%)
Alignment                                : Split accross interleaves
Interleave, duration                     : 42 ms (1.00 video frame)
Interleave, preload duration             : 500 ms

UPLOADABLE

http://www.uploadable.ch/file/QDrBEnWA5KzD
http://www.uploadable.ch/file/wCDrDApGwfg3
http://www.uploadable.ch/file/8MWdN7tVyNA7

FILEMONKEY

https://www.filemonkey.in/file/u8ropuqkqu4fxsdb
https://www.filemonkey.in/file/7youijiscq4tk6jr
https://www.filemonkey.in/file/opuqkqu4fxsdbuw7

UPLOADED

http://ul.to/mllajma0
http://ul.to/n1rjjpzy
http://ul.to/n7q91fcd

RAPIDGATOR

http://rapidgator.net/file/7a2628b803c31...2.rar.html
http://rapidgator.net/file/2ba01d5ac444f...1.rar.html
http://rapidgator.net/file/35199789f9cd3...3.rar.html


1LINK

http://www.uploadable.ch/file/KTfBUdeTRWr6
https://www.filemonkey.in/file/youijiscq4tk6jra
http://ul.to/gbk04t2d
http://rapidgator.net/file/417edf9400368...K.rar.html

0
Super moderadores
Nivel: 34 [Nivel]
Rango : 8%
RangoRango
Actividad : 3%
ActividadActividad
Experiencia : 55 %
ExperienciaExperiencia
Churute13 OFF TeamNsN ******
2

  • 1,681

  • 308

  • 3







Respuesta: Atrapada En La Oscuridad [HDrip.Xvid AC3 Esp][Thriller][2013] 1681 - 308 - 3   22-01-2014, 06:45 PM
My buen peli gracias
0
To share is to live!


Salto de foro:


Usuarios navegando en este tema: 1 invitado(s)