• ... Sin eventos.....

    • ... Se ruega leer las normas y reglas. Leer aquí

    • Bienvenido..


     
    Calificación:
    • 0 votos - 0 Media
    • 1
    • 2
    • 3
    • 4
    • 5
    Asalto Al Poder [HDrip.Xvid AC3 Dual][Accion][2013]


    Registrados

    Miembro


    ***
    58

    0

    Asalto Al Poder [HDrip.Xvid AC3 Dual][Accion][2013]
    İmage

    Título original
    White House Down
    Año
    2013
    Duración
    131 min.
    País
    Estados Unidos Estados Unidos
    Director
    Roland Emmerich
    Guión
    James Vanderbilt
    Música
    Harald Kloser, Thomas Wanker
    Fotografía
    Anna Foerster
    Reparto
    Channing Tatum, Maggie Gyllenhaal, Jamie Foxx, James Woods, Joey King, Richard Jenkins, Jason Clarke, Lance Reddick, Falk Hentschel, Michael Murphy, Romano Orzari, Patrick Sabongui, Jackie Geary, Andrew Shaver
    Productora
    Columbia Pictures / Iron Horse Entertainment / Mythology Entertainment
    Género
    Acción. Thriller | Terrorismo
    Web Oficial
    http://www.whitehousedown.com/site/
    Sinopsis
    John Cale (Channing Tatum), un policía del Capitolio, ve rechazada su petición de entrar en el Servicio Secreto para proteger al Presidente de los Estados Unidos James Sawyer (Jamie Foxx). Para no decepcionar a su hija, la lleva a hacer un tour por la Casa Blanca. En ese momento, un comando paramilitar fuertemente armado asalta el edificio. Con el Gobierno de la nación sumido en el caos, Cale intentará salvar al Presidente, a su hija y al país. (FILMAFFINITY)

    İmage

    Tamaño Total: 3,34 GB
    Resolucion:720x304
    Video:XVID
    Idioma:Español e Ingles + Subtitulos (Subs Forzados Integrados)
    Fuente:Full Bluray

    Código:
    General
    Complete name                            : D:\HDrip\Asalto Al Poder HDrip.Xvid AC3 Dual\Asalto Al Poder HDrip.Xvid AC3 esp.avi
    Format                                   : AVI
    Format/Info                              : Audio Video Interleave
    Format profile                           : OpenDML
    File size                                : 2.05 GiB
    Duration                                 : 2h 11mn
    Overall bit rate                         : 2 227 Kbps
    Writing application                      : VirtualDubMod 1.5.4.1 (build 2178/release)
    Writing library                          : VirtualDubMod build 2178/release

    Video
    ID                                       : 0
    Format                                   : MPEG-4 Visual
    Format profile                           : Advanced [email protected]
    Format settings, BVOP                    : 1
    Format settings, QPel                    : No
    Format settings, GMC                     : No warppoints
    Format settings, Matrix                  : Default (MPEG)
    Codec ID                                 : XVID
    Codec ID/Hint                            : XviD
    Duration                                 : 2h 11mn
    Bit rate                                 : 1 831 Kbps
    Width                                    : 720 pixels
    Height                                   : 304 pixels
    Display aspect ratio                     : 2.35:1
    Frame rate                               : 23.976 fps
    Color space                              : YUV
    Chroma subsampling                       : 4:2:0
    Bit depth                                : 8 bits
    Scan type                                : Progressive
    Compression mode                         : Lossy
    Bits/(Pixel*Frame)                       : 0.349
    Stream size                              : 1.68 GiB (82%)
    Writing library                          : XviD 64

    Audio
    ID                                       : 1
    Format                                   : AC-3
    Format/Info                              : Audio Coding 3
    Mode extension                           : CM (complete main)
    Format settings, Endianness              : Big
    Codec ID                                 : 2000
    Duration                                 : 2h 11mn
    Bit rate mode                            : Constant
    Bit rate                                 : 384 Kbps
    Channel count                            : 6 channels
    Channel positions                        : Front: L C R, Side: L R, LFE
    Sampling rate                            : 48.0 KHz
    Bit depth                                : 16 bits
    Compression mode                         : Lossy
    Stream size                              : 361 MiB (17%)
    Alignment                                : Split accross interleaves
    Interleave, duration                     : 42 ms (1.00 video frame)
    Interleave, preload duration             : 500 ms

    La película lleva solamente incorporado el audio en Castellano. Dentro de la carpeta lleva el audio Ingles. Así el que quiera la película en dual, puede añadirla con el VirtualDubMod


    UPLOADABLE

    http://www.uploadable.ch/file/WQZmnjbTMQ4G
    http://www.uploadable.ch/file/zzHbbD3939rn
    http://www.uploadable.ch/file/Rgjt4Fd6wfjs
    http://www.uploadable.ch/file/xArKwWx2fZrG
    http://www.uploadable.ch/file/W2Yu3h9zBvzA

    FILEMONKEY

    https://www.filemonkey.in/file/as2lucsw7roodlj1
    https://www.filemonkey.in/file/tbu82n6ryztju6bq
    https://www.filemonkey.in/file/q6tbu82n6ryztju6
    https://www.filemonkey.in/file/6tbu82n6ryztju6b
    https://www.filemonkey.in/file/csw7roodlj1ri4dz

    UPLOADED

    http://ul.to/120l2f13
    http://ul.to/bw5xpozx
    http://ul.to/rznpbu6a
    http://ul.to/lwriujvj
    http://ul.to/l8d1k686


    1 LINK

    http://www.uploadable.ch/file/XnXQP2dEv7Dp
    https://www.filemonkey.in/file/bu82n6ryztju6bqe
    http://ul.to/exmtos4w
    22-01-2014 08:29 AM
    Buscar Responder


    Salto de foro:


    Usuario(s) navegando en este tema: 1 invitado(s)

    Acerca ForoNsN - New Softwarez Network

    Somos una comunidad abierta a todo tipo de persona, con ganas de aprender y compartir todo tipo de conocimiento!

    ""El Don más grande que podemos hacer a otros no es compartir con ellos nuestra riqueza, sino hacerles descubrir la propia""

     

    Información